游客您好
第三方账号登陆
  • 点击联系客服

    在线时间:9:00-18:00

    客服QQ

    1371333023

    电子邮件

    lanniao@1080pro.net
  • 烧友之家APP

    随时掌握烧友资讯

  • 扫描二维码

    关注微信公众号

推荐阅读
蓝鸟
未知星球 | 未知职业
  • 关注0
  • 粉丝2
  • 帖子94262
精选帖子
开启左侧

野性精神 4kSpirit.Untamed.2021.2160p.AMZN.WEB-DL.x265.10bit.HDR10Plus.DDP5.1电影下载—9.54 GB

[复制链接]
蓝鸟 发表于 2021-6-25 09:17:30 | 显示全部楼层 |阅读模式 打印 上一主题 下一主题
野性精神
上映时间:2021年
类型:动画 西部 
地区:美国 
导演:伊莲·博根 / 恩尼奥·托雷桑
主演:麦肯娜·格瑞丝 / 艾莎·冈萨雷斯 / 沃尔顿·戈金斯 / 杰克·吉伦哈尔 / 伊莎贝拉·莫奈
画质标准:4K HDR  封装音轨:Dolby TrueHD 5.1 Dolby Atmos 
豆瓣评分:6.3分

加入蓝光高清网,轻松下载最新4k资源

您需要 登录 才可以下载或查看,没有帐号?立即注册

x
简       介6 a" M! N. n7 t+ m  M' r$ S

0 {/ S3 S% }3 H
, S; v  o8 R2 W! [' Q& o
  幸运的普雷斯科特的生活永远改变了,当她从她在城市的家搬到一个边疆小镇,并与一只名叫“精灵”的野马交上了朋友。
. d. y* J1 K8 N. r! z" I* z7 D1 d% t* I3 z( l
4 s9 j" n4 l8 p- X, v
影片参数
- Q" ]/ p0 [0 f2 S! ]
小马王:毛驹无束(港) / 奔驰吧!小马王(台) / 史比瑞:奔向自由 / 不羁的精神 /Spirit Riding Free/野性精神4kSpirit.Untamed.2021.2160p.AMZN.WEB-DL.x265.10bit.HDR10Plus.DDP5.1电影信息" Y( n9 {, }1 ^* w  I6 Q
Video8 t! e+ h  Q& a
ID : 1
2 l0 s: y8 W% B- W- d. ^. eFormat : HEVC
; X( N4 y% D+ AFormat/Info : High Efficiency Video Coding( M0 H- d% e, E( u, n4 L
Format profile : Main 10@L5@Main
# {, B7 P/ {8 B8 b9 l! g. Y) IHDR format : SMPTE ST 2094 App 4, Version 1, HDR10+ Profile B compatible# `$ R& D6 C+ c5 b8 A
Codec ID : V_MPEGH/ISO/HEVC. }: b; @5 ?  E3 c+ }% q
Duration : 1 h 27 min- j, `: M' Z. f8 P9 e1 f- a! k8 f
Bit rate : 14.9 Mb/s
, J& |! V8 e) W" _# SWidth : 3 840 pixels5 y/ m3 A' P% L. }3 {6 N
Height : 1 600 pixels& E9 Y2 l( x/ z% z% i7 X
Display aspect ratio : 2.40:1
1 F4 V: m+ V6 Y5 q7 W- I6 z0 TFrame rate mode : Constant3 D; p# d( s3 d  P
Frame rate : 23.976 (24000/1001) FPS+ D, K( c; t6 q9 T* U  r
Color space : YUV
: m* b$ j, U8 _1 Q( W4 Y/ Y6 j# TChroma subsampling : 4:2:0
/ p3 i" V/ [( a! ?1 f5 y  nBit depth : 10 bits9 B4 [3 ]8 R& `2 ^2 }
Bits/(Pixel*Frame) : 0.101: H# ]/ F: J/ z  B
Stream size : 9.15 GiB (96%)
# H' K2 k0 M: P3 ]0 eDefault : Yes
' f) k0 |# M5 ]6 k- wForced : No
" o+ k% r7 e) C6 nColor range : Limited4 q- y* m2 S4 y! ~
Color primaries : BT.2020
% Q2 a( Q' B) j% hTransfer characteristics : PQ
# v* W+ F, N, XMatrix coefficients : BT.2020 non-constant
' ?: ~  D5 ]9 g- @, DMastering display color primaries : BT.2020  f! i, \' ]  F* i
Mastering display luminance : min: 0.0050 cd/m2, max: 1000 cd/m2
  R' [4 ^3 h6 z9 Z# SMaximum Content Light Level : 1033 cd/m2( \( D* T. K- J
Maximum Frame-Average Light Level : 246 cd/m22 @' K- k+ Y1 l2 E, t$ B
( [0 s3 n6 T9 `+ b2 \/ t# R
5 m2 x" @+ m8 `" b
Audio
; V( U, I7 _8 i* r2 q2 W5 ]ID : 2( c; n* B3 Q0 ]$ i7 K3 ^
Format : E-AC-3( \6 r" T9 v6 M1 C; H5 W% t) v
Format/Info : Enhanced AC-3
6 h. y3 x3 Y6 \0 @. ^5 r4 ~% tCommercial name : Dolby Digital Plus: V, O; e' E9 o* o
Codec ID : A_EAC33 z  _( w1 j6 F& y# P
Duration : 1 h 27 min* S; E3 v$ \. B% k
Bit rate mode : Constant" o" k0 }" d+ B- {: q
Bit rate : 640 kb/s" L" l' E& a/ r# @1 `( r
Channel(s) : 6 channels
3 F) Q7 f2 e6 j2 ], m8 kChannel layout : L R C LFE Ls Rs1 e. f( H5 `4 F" g. |2 w4 _8 ?9 g
Sampling rate : 48.0 kHz9 p# P& h' D$ z' {
Frame rate : 31.250 FPS (1536 SPF)
# E( d6 s; x) C8 GCompression mode : Lossy
8 P  ^) A6 B& Z- u1 M+ \& XStream size : 401 MiB (4%)& p/ H- |8 S6 R, |6 S) B; t2 K
Title : English
- o" l3 E0 u  Y( V4 F1 w$ ^* rLanguage : English8 o# [& i; H# j- P3 L2 a+ L$ g
Service kind : Complete Main
) ~8 d2 N( c# e- y: G& A" JDefault : No/ @& h7 V5 \1 A6 {
Forced : No
: O" ^0 G5 {/ i7 |
' h1 s* u2 ~3 [# y. k4 j
蓝光高清网提示您  点击下方附件名称  马上开始下载
  F8 [( a3 S8 g: k6 w1 ]. z
" J% w/ b- Z) f1 X3 Y) l
& W/ Q9 g% W3 ]9 g' [' h1 i/ \
多版本下载时请注意区分
" C1 ~' R8 n+ T* }: r" Y0 ?/ A: N9 c# u* V) V. K( b  I

9 N# Z/ @9 w7 ]. r小马王:毛驹无束(港) / 奔驰吧!小马王(台) / 史比瑞:奔向自由 / 不羁的精神 / Spirit Riding Free/野性精神4kSpirit.Untamed.2021.2160p.AMZN.WEB-DL.x265.10bit.HDR10Plus.DDP5.1电影下载
9 g2 {8 a3 p1 ~- h3 \9 ^, ?
3 ^7 n/ j; h) R0 _2 i7 z

& k4 a& g$ t. \6 T# R  t野性精神4k Spirit.Untamed.2021.2160p.AMZN.WEB-DL.x265.10bit.HDR10Plus.DDP5.1【9.54GB】" @, J7 M' _6 r; N" {8 z
野性精神4K Spirit.Untamed.2021.2160p.AMZN.WEB-DL.x265.10bit.HDR10Plus.DDP.torrent (文件大小:48.39 KB)
加入蓝光高清网VIP会员  无限制下载本站所有资源---点这里

资源下载、资源播放、字幕使用、无法下载等常见问题---点这里
回复

使用道具 举报

精彩评论2

ggang1 发表于 2021-6-25 14:14:49 | 显示全部楼层
谢谢楼主分享。
回复 支持 反对

使用道具 举报

kmt 发表于 2021-6-26 08:55:43 | 显示全部楼层
每日一打卡,支持楼主多发布精品。
回复 支持 反对

使用道具 举报

您需要登录后才可以回帖 登录 | 立即注册

本版积分规则

烧友之家(蓝光高清网)本站内容部分由用户自主分享和转载自互联网,转载目的在于传递更多信息,并不代表本网赞同其观点和对其真实性负责。 如有侵权、违反国家法律政策行为,请联系我们,我们会第一时间及时清除和处理!
蓝光高清网 综合资讯平台
关注我们
  • 官方微信公众号
  • 扫码下载官方APP

X3.4 Licensed© 2001-2013 蓝光高清网 烧友之家APP |网站地图