游客您好
第三方账号登陆
  • 点击联系客服

    在线时间:9:00-18:00

    客服QQ

    1371333023

    电子邮件

    lanniao@1080pro.net
  • 烧友之家APP

    随时掌握烧友资讯

  • 扫描二维码

    关注微信公众号

推荐阅读
蓝鸟
未知星球 | 未知职业
  • 关注0
  • 粉丝2
  • 帖子94262
精选帖子
开启左侧

[4K高清美剧] 良医 4k The.Good.Doctor.S01.2160p.AMZN.WEBRip.DDP5.1.x265美剧下载—41.47 GB

[复制链接]
蓝鸟 发表于 2021-6-25 09:26:09 | 显示全部楼层 |阅读模式 打印 上一主题 下一主题
良医

状态:第一季(完结)
上映时间:2017-09-25
类型:剧情 
地区:美国
导演:赛斯·戈登 / 麦克·里斯托
主演:弗莱迪·海默 / 尼古拉斯·冈萨雷斯 / 安东尼娅·托马斯 / 卓库·莫度 / 碧儿·加勒特
画质标准:4K(3840x2160) 封装音轨:MKV 音轨编码:其他DD
豆瓣评分:9.2分

加入蓝光高清网,轻松下载最新4k资源

您需要 登录 才可以下载或查看,没有帐号?立即注册

x
影片参数
好医生 / 仁医 / 良医心 / 良医墨非/良医4k The.Good.Doctor.S01.2160p.AMZN.WEBRip.DDP5.1.x265美剧信息
Video
ID : 1
Format : HEVC
Format/Info : High Efficiency Video Coding
Format profile : Main@L5@Main
Codec ID : V_MPEGH/ISO/HEVC
Duration : 42 min 56 s
Bit rate : 12.4 Mb/s
Width : 3 840 pixels
Height : 2 160 pixels
Display aspect ratio : 16:9
Frame rate mode : Constant
Frame rate : 23.976 (24000/1001) FPS
Standard : NTSC
Color space : YUV
Chroma subsampling : 4:2:0
Bit depth : 8 bits
Bits/(Pixel*Frame) : 0.062
Stream size : 3.71 GiB (95%)
Writing library : x265 0.0:[Linux][GCC 4.8.2][64 bit] 8bit+10bit+12bit
Encoding settings : cpuid=1173503 / frame-threads=2 / wpp / no-pmode / no-pme / psnr / ssim / log-level=2 / csvfn=/apollo/env/YoshiEncodingWorkflowActivitiesLinuxEncoding/var/tmp/1467341200/3acb1c23-47b2-46e2-94f5-802d06fc3ae4/71ad9d0e-69f3-4994-92d7-61308c07f0bc_video_2160p_15000kbps.csv / csv-log-level=2 / input-csp=1 / input-res=3840x2160 / interlace=0 / total-frames=0 / level-idc=50 / high-tier=1 / uhd-bd=0 / ref=5 / no-allow-non-conformance / no-repeat-headers / annexb / no-aud / no-hrd / info / hash=0 / no-temporal-layers / no-open-gop / min-keyint=61 / keyint=120 / bframes=8 / b-adapt=2 / b-pyramid / bframe-bias=0 / rc-lookahead=120 / lookahead-slices=4 / scenecut=0 / no-intra-refresh / ctu=64 / min-cu-size=8 / rect / amp / max-tu-size=32 / tu-inter-depth=4 / tu-intra-depth=4 / limit-tu=4 / rdoq-level=2 / dynamic-rd=0.00 / no-ssim-rd / signhide / tskip / nr-intra=100 / nr-inter=600 / no-constrained-intra / strong-intra-smoothing / max-merge=3 / limit-refs=3 / limit-modes / me=3 / subme=3 / merange=57 / temporal-mvp / weightp / weightb / no-analyze-src-pics / deblock=0:0 / no-sao / no-sao-non-deblock / rd=4 / no-early-skip / no-rskip / no-fast-intra / tskip-fast / no-cu-lossless / b-intra / rdpenalty=0 / psy-rd=4.00 / psy-rdoq=10.00 / no-rd-refine / analysis-reuse-mode=0 / no-lossless / cbqpoffs=0 / crqpoffs=0 / rc=crf / crf=25.0 / qcomp=0.60 / qpstep=1 / stats-write=0 / stats-read=0 / vbv-maxrate=15000 / vbv-bufsize=20000 / vbv-init=0.9 / crf-max=0.0 / crf-min=0.0 / ipratio=1.10 / pbratio=1.00 / aq-mode=0 / aq-strength=1.50 / no-cutree / zone-count=0 / no-strict-cbr / qg-size=32 / rc-grain / qpmax=69 / qpmin=0 / const-vbv / sar=1 / overscan=0 / videoformat=2 / range=0 / colorprim=1 / transfer=1 / colormatrix=1 / chromaloc=0 / display-window=0 / max-cll=0,0 / min-luma=0 / max-luma=255 / log2-max-poc-lsb=8 / vui-timing-info / vui-hrd-info / slices=1 / opt-qp-pps / opt-ref-list-length-pps / no-multi-pass-opt-rps / scenecut-bias=0.05 / no-opt-cu-delta-qp / no-aq-motion / no-hdr / no-hdr-opt / no-dhdr10-opt / analysis-reuse-level=5 / scale-factor=0 / refine-intra=0 / refine-inter=0 / refine-mv=0 / no-limit-sao / ctu-info=0
Default : Yes
Forced : No
Color range : Limited
Color primaries : BT.709
Transfer characteristics : BT.709
Matrix coefficients : BT.709


Audio
ID : 2
Format : E-AC-3
Format/Info : Enhanced AC-3
Commercial name : Dolby Digital Plus
Codec ID : A_EAC3
Duration : 42 min 56 s
Bit rate mode : Constant
Bit rate : 640 kb/s
Channel(s) : 6 channels
Channel layout : L R C LFE Ls Rs
Sampling rate : 48.0 kHz
Frame rate : 31.250 FPS (1536 SPF)
Compression mode : Lossy
Stream size : 197 MiB (5%)
Title : English
Language : English
Service kind : Complete Main
Default : No
Forced : No


蓝光高清网提示您  点击下方附件名称  马上开始下载


多版本下载时请注意区分


好医生 / 仁医 / 良医心 / 良医墨非/良医4k The.Good.Doctor.S01.2160p.AMZN.WEBRip.DDP5.1.x265美剧下载


良医4k The.Good.Doctor.S01.2160p.AMZN.WEBRip.DDP5.1.x265【41.47GB】
良医4k The.Good.Doctor.S01.2160p.AMZN.WEBRip.DDP5.1.x265-SymBiOTes.torrent (文件大小:106.17 KB)
加入蓝光高清网VIP会员  无限制下载本站所有资源---点这里

资源下载、资源播放、字幕使用、无法下载等常见问题---点这里
回复

使用道具 举报

精彩评论2

宋诗阳手机认证 发表于 2021-6-25 13:12:58 来自手机 | 显示全部楼层
谢谢楼主分享
回复 支持 反对

使用道具 举报

panghong手机认证 发表于 2021-6-25 16:16:37 | 显示全部楼层

谢谢楼主分享
回复 支持 反对

使用道具 举报

您需要登录后才可以回帖 登录 | 立即注册

本版积分规则

烧友之家(蓝光高清网)本站内容部分由用户自主分享和转载自互联网,转载目的在于传递更多信息,并不代表本网赞同其观点和对其真实性负责。 如有侵权、违反国家法律政策行为,请联系我们,我们会第一时间及时清除和处理!
蓝光高清网 综合资讯平台
关注我们
  • 官方微信公众号
  • 扫码下载官方APP

X3.4 Licensed© 2001-2013 蓝光高清网 烧友之家APP |网站地图