游客您好
第三方账号登陆
  • 点击联系客服

    在线时间:9:00-18:00

    客服QQ

    1371333023

    电子邮件

    lanniao@1080pro.net
  • 烧友之家APP

    随时掌握烧友资讯

  • 扫描二维码

    关注微信公众号

推荐阅读
蓝鸟
未知星球 | 未知职业
  • 关注0
  • 粉丝2
  • 帖子95610
精选帖子
开启左侧

冰川时代3 4k Ice.Age.Dawn.of.the.Dinosaurs.2009.2160p.DSNP.WEB-DL.x265.10bit.HDR.DTS-HD.MA.7.1-4k电影下载—12.81 GB

[复制链接]
蓝鸟 发表于 2021-7-1 08:53:12 | 显示全部楼层 |阅读模式 打印 上一主题 下一主题
冰川时代3
上映时间:2009年
类型:喜剧 动画 冒险 
地区:美国 
导演:卡洛斯·沙尔丹哈 / 麦克·特米尔
主演:雷·罗马诺 / 约翰·雷吉扎莫 / 丹尼斯·利瑞 / Maile Flanagan / Jason Fricchione
画质标准:4K HDR  封装音轨:DTS-HD.MA 7.1 
豆瓣评分:8.3分

加入蓝光高清网,轻松下载最新4k资源

您需要 登录 才可以下载或查看,没有帐号?立即注册

x
简       介, V' p+ Z4 S3 R  R$ Q

, ^  A1 A$ q/ I: Q! m

5 K+ }& S  ^' b+ O3 X, P6 V9 V  一群老朋友又将开始一段新的旅程。当猛犸象曼尼(Manny)沉浸在马上要当爸爸的喜悦之时,剑齿虎迭戈(Diego)却为自己的逐渐衰老而黯然伤神,此时树懒希德(Sid)则发现了三枚恐龙蛋,居然“母爱”泛滥,想作这三只小霸王龙的妈妈,结果被小恐龙真正的妈妈霸王龙掳走。8 r9 P- B- S7 \+ t7 F
  为了寻找同伴,一群可爱的动物朋友们走进了隐藏在冰河世纪之下的“侏罗纪公园”,在这片神奇的地方,他们会认识什么新朋友,又会遭遇到什么危险,这都让所有众多“冰粉”们充满期待。/ ~# F3 f; w' q* ^. D
  这部电影作为20世纪福克斯公司(20th Century Fox)第一部3D形式大规模上映的动画片其制作成本达到1.2亿美元,几乎是《冰河世纪1》的两倍。

9 Y5 }: h2 r% O4 ]5 u( n* a7 _
! j7 C8 p# U  Q, i
% {1 j0 h: k. p! w) j# w
影片参数: r& g1 V& d3 f( a
冰河世纪3:大威龙驾到 / 冰河时代3:恐龙的黎明 / 冰原历险记3 / Ice Age 3/冰川时代3 4k Ice.Age.Dawn.of.the.Dinosaurs.2009.2160p.DSNP.WEB-DL.x265.10bit.HDR.DTS-HD.MA.7.1-4k电影信息3 [" y/ q( ~2 H$ k( z! l
Video
0 I$ j( t& P2 ]; ]9 ]6 M/ cID : 1
1 Q- r: t3 o3 UFormat : HEVC. @; L+ q! Q" b( n4 _- a
Format/Info : High Efficiency Video Coding6 V* j. v! h; e- f, g) _0 o
Format profile : Main 10@L5@High
( p8 v4 v! D) _& E& M+ c* |$ FHDR format : SMPTE ST 2086, HDR10 compatible
" ?' F, f$ u& u$ O2 F( a- VCodec ID : V_MPEGH/ISO/HEVC, y/ Y4 ]+ X! x
Duration : 1 h 34 min
" n$ R6 ?+ I7 c8 z; Y/ Y  g5 W4 WBit rate : 16.7 Mb/s5 M- M4 H/ A. w+ ?! n* A1 a* [: Y. q
Width : 3 840 pixels
5 }2 x' H5 }9 ^; b; h% p3 ]Height : 2 160 pixels
! V$ E& a0 ~  H* PDisplay aspect ratio : 16:99 P4 U; y0 h8 ^# N* m
Frame rate mode : Constant
2 b" t$ S; {1 c. @Frame rate : 23.976 (24000/1001) FPS& \$ S5 B! n. o' ]
Color space : YUV" h* A0 m2 k. N# \2 F5 A: q8 {  a
Chroma subsampling : 4:2:0
2 W: G4 V  Y: {7 D" o) ~8 j: dBit depth : 10 bits/ }2 v' b# F/ a8 h. j
Bits/(Pixel*Frame) : 0.084
( u5 k$ H/ [3 @5 M* u8 ?Stream size : 10.9 GiB (85%)( L+ ^! x; ], A* m
Default : Yes
# w. M" y* t& AForced : No
9 H. t9 c% u9 M0 C8 f: lColor range : Limited
! s, r4 }% z. }# I7 O9 n3 c) j& A; z4 _Color primaries : BT.20200 Z, \% m! k& Z- s! `  @2 T) v
Transfer characteristics : PQ4 Y+ @4 z5 D' q% T( e; o
Matrix coefficients : BT.2020 non-constant- S; U( @7 O# u+ F8 n! N; r; n
Mastering display color primaries : Display P3
6 q2 \) N7 g! _2 `) _& W, wMastering display luminance : min: 0.0001 cd/m2, max: 1000 cd/m2( ^( h; a! {1 S8 a
% f2 I) l. [8 f/ s

6 _; M& R  w/ r$ E& h5 ]9 @Audio #16 y" e2 [4 g- y! X; y
ID : 2- W) d; q, _4 D$ I& y! b
Format : DTS ES XLL
& ?, J1 m6 ~, `" Z* {: X4 LFormat/Info : Digital Theater Systems5 E4 i/ `  O8 g8 ~3 B! _  w
Commercial name : DTS-HD Master Audio# h% u" H0 E, R$ I' R$ u0 {
Codec ID : A_DTS
) g/ K* r% @' S" ?( \* i8 A2 CDuration : 1 h 34 min0 f  w/ ?# x& l# W/ [, v
Bit rate mode : Variable1 h$ I) u) H, O" X; q8 L
Bit rate : 2 576 kb/s, G* M- ]' V$ P' C
Channel(s) : 8 channels
3 M2 O( U9 A9 e  f) RChannel layout : C L R Ls Rs LFE Lb Rb, E$ j, U* w, |
Sampling rate : 48.0 kHz
9 D9 z- M  b  sFrame rate : 93.750 FPS (512 SPF)& |/ g% z7 o9 H+ I8 i& Q0 h1 g! d
Bit depth : 16 bits
/ }  _* `9 W. f! H& |Compression mode : Lossless7 b, O" s; Q' F" o
Stream size : 1.69 GiB (13%)
7 B% d8 y. @- @/ B: X. P" YTitle : DTS-HD MA 7.1
. o0 j1 y! [: I* q/ J0 pLanguage : English
! n+ ~8 z4 T6 _+ q/ x3 h  vDefault : Yes
  k( U& F! G3 ^$ H& o& ^. f! MForced : No
$ v% o) B8 S- x) }: K/ s+ i0 O( b  T7 E# Q+ \; I

- r4 B& z$ o1 a& e: @7 X/ F# lAudio #2, Z# U: B) r  ^$ }; ^& Z
ID : 3$ b, C- U/ f2 k% ?+ N& G
Format : E-AC-3* E7 f! O. b7 U! i8 O6 `9 i$ f$ w
Format/Info : Enhanced AC-3
/ Z; P: k1 F- p# }& q( J2 z8 ]Commercial name : Dolby Digital Plus
. \2 y) L% `' H7 ]% R4 OCodec ID : A_EAC3
: d, {$ m% g: x( |/ bDuration : 1 h 34 min1 T' c; ~" @( H- A, a
Bit rate mode : Constant
4 W$ `8 {, y* W% v  V8 YBit rate : 256 kb/s5 h5 v' E7 z+ J. p9 h4 x/ _% j
Channel(s) : 6 channels# e! n- Q) |% n, f/ _, C
Channel layout : L R C LFE Ls Rs
% r" K4 l  }1 d0 u3 ~/ RSampling rate : 48.0 kHz
) V8 c! r( V% r/ Y! w, r/ f5 h" N+ B. o' FFrame rate : 31.250 FPS (1536 SPF)! M8 \- l& b; \9 g3 s* D+ W+ D
Compression mode : Lossy
( L9 L" ]& W/ {' l/ RStream size : 172 MiB (1%)/ ~4 d- A+ [. W5 m, U& z
Title : DDP 5.1% V' H& ~2 p# y) c5 c, P6 C
Language : English$ v' Y1 }! q& H/ ~
Service kind : Complete Main1 G1 V  g/ |! U+ U, H
Default : No. Z" z0 a5 [+ \3 d5 \) c
Forced : No
. E4 C# a8 W; A! E% b+ y. o) A5 R

  m+ w" V* M* B: }7 n) K蓝光高清网提示您  点击下方附件名称  马上开始下载3 @5 h1 }* ~. R" F  F( [6 Q% D# E

, P4 n. ^$ u: s' P

+ v$ c4 t% v6 ]# K# b2 W冰河世纪3:大威龙驾到 / 冰河时代3:恐龙的黎明 / 冰原历险记3 / Ice Age 3/冰川时代3 4k Ice.Age.Dawn.of.the.Dinosaurs.2009.2160p.DSNP.WEB-DL.x265.10bit.HDR.DTS-HD.MA.7.1-4k电影下载
) {% k; u1 W' K' {  N7 K, j7 u1 F3 v; ^6 E2 ]
冰川时代3 4k Ice.Age.Dawn.of.the.Dinosaurs.2009.2160p.DSNP.WEB-DL.x265.10bit.HDR.DTS-HD.MA.7.1【12.81GB】
& |3 S$ K; K) f8 d3 Q, Q 冰川时代3 4k Ice.Age.Dawn.of.the.Dinosaurs.2009.2160p.DSNP.WEB-DL.x265.10.torrent (文件大小:64.75 KB)
加入蓝光高清网VIP会员  无限制下载本站所有资源---点这里

资源下载、资源播放、字幕使用、无法下载等常见问题---点这里
回复

使用道具 举报

精彩评论5

liyun80000手机认证 发表于 2021-7-1 10:49:43 | 显示全部楼层
感谢楼主分享
回复 支持 反对

使用道具 举报

ggang1 发表于 2021-7-1 10:51:39 | 显示全部楼层
  }. x7 Q; ~( g: Z; y3 n
谢谢楼主分享
回复 支持 反对

使用道具 举报

宋诗阳手机认证 发表于 2021-7-1 22:09:48 来自手机 | 显示全部楼层
谢谢楼主分享
6 B# o; D  w  u; M" x- R7 N# O' ]
回复 支持 反对

使用道具 举报

StanJackso_ZRGL手机认证 发表于 2021-8-1 13:13:15 | 显示全部楼层
求更新和1,2,4一样带中文的版本!
回复 支持 反对

使用道具 举报

音乐小子 发表于 2021-9-14 21:08:33 | 显示全部楼层
在什么地方下载
回复 支持 反对

使用道具 举报

您需要登录后才可以回帖 登录 | 立即注册

本版积分规则

烧友之家(蓝光高清网)本站内容部分由用户自主分享和转载自互联网,转载目的在于传递更多信息,并不代表本网赞同其观点和对其真实性负责。 如有侵权、违反国家法律政策行为,请联系我们,我们会第一时间及时清除和处理!
蓝光高清网 综合资讯平台
关注我们
  • 官方微信公众号
  • 扫码下载官方APP

X3.4 Licensed© 2001-2013 蓝光高清网 烧友之家APP |网站地图