游客您好
第三方账号登陆
  • 点击联系客服

    在线时间:9:00-18:00

    客服QQ

    1371333023

    电子邮件

    lanniao@1080pro.net
  • 烧友之家APP

    随时掌握烧友资讯

  • 扫描二维码

    关注微信公众号

推荐阅读
蓝鸟
未知星球 | 未知职业
  • 关注0
  • 粉丝2
  • 帖子94272
精选帖子
开启左侧

黑寡妇 4K.Black.Widow.2021.2160p.DSNP.WEB-DL.x265.10bit.HDR.DDP5.1.Atmos-4k电影下载-16.01 GB

  [复制链接]
蓝鸟 发表于 2021-7-9 23:21:20 | 显示全部楼层 |阅读模式 打印 上一主题 下一主题
黑寡妇
上映时间:2021年
类型:动作 科幻 冒险 
地区:美国 
导演:凯特·绍特兰
主演:斯嘉丽·约翰逊 / 弗洛伦丝·皮尤 / 蕾切尔·薇兹 / 大卫·哈伯 / 艾尔·安德森
画质标准:4K HDR  封装音轨:Dolby TrueHD 5.1 
豆瓣评分:7.2分

加入蓝光高清网,轻松下载最新4k资源

您需要 登录 才可以下载或查看,没有帐号?立即注册

x
本帖最后由 蓝鸟 于 2021-7-15 09:18 编辑 ( H. |/ ~+ u$ P( T& P

# A# X' F+ I) V# o9 J  a简       介5 B& V% K/ |) ^2 T
! p# p4 ]% F+ o, X
  一部充满动作戏的间谍惊悚片。娜塔莎·罗曼诺夫/黑寡妇遭遇与她的过去相关的一场危险阴谋,将直面自己那些更为黑暗的经历。一股不惜一切要击倒她的力量袭来,娜塔莎必须面对自己在成为复仇者的很久之前那作为间谍的过往,和曾远离的破碎关系。, ^0 j: _  \$ g2 j0 ~1 _
* N6 m1 w$ ]' s2 u7 u2 O/ |' j
影片参数
2 ~- @. |* W. d% G0 D% }
The Black Widow/黑寡妇4K.Black.Widow.2021.2160p.DSNP.WEB-DL.x265.10bit.HDR.DDP5.1.Atmos-4k电影信息4 q7 y6 y& e- s- ^
Video
: b! V5 m8 A8 i# Y2 n+ n8 uID : 11 n5 V6 J& N0 l. H+ Q
Format : HEVC* J& {8 `: x1 c. L( u8 b8 I
Format/Info : High Efficiency Video Coding  x9 L. \8 o! T
Format profile : Main 10@L5@High
2 o% p( z) k. u. M0 dHDR format : SMPTE ST 2086, HDR10 compatible
9 f4 v3 w0 ^# ^5 ~Codec ID : V_MPEGH/ISO/HEVC
, k7 g2 Z8 u* V8 K9 o' cDuration : 2 h 13 min
) B. b8 T" E- pBit rate : 16.4 Mb/s# a; Q6 @  b( b1 n& v5 M2 }
Width : 3 840 pixels
1 ?% i* U' Z0 F, b# ^! J! _) ?. e/ ZHeight : 2 160 pixels. F! Q( \( _* J; Q: y2 M- E' ]
Display aspect ratio : 16:9
+ Z1 s) P' P9 X2 S( c4 lFrame rate mode : Constant
0 t- W# G; q6 Q: S5 cFrame rate : 23.976 (24000/1001) FPS" J$ Z$ S, y( t8 Q
Color space : YUV5 E! B4 q2 Q1 ~* j
Chroma subsampling : 4:2:0) I2 [, i" q: ?0 i( t7 ^- E7 ]" e& g
Bit depth : 10 bits
& x) e0 Q' X! ]' P5 ?0 IBits/(Pixel*Frame) : 0.0820 ~& m) L9 V8 P# [( B
Stream size : 15.3 GiB (95%)7 ?: B. I' K0 [6 h
Default : Yes
& }; ^9 h- S. j5 A$ w, Z: SForced : No
0 q' o% S7 z, TColor range : Limited! C7 _7 n0 B% {0 B
Color primaries : BT.20207 I! f8 s- g$ ]" }' u% N+ S
Transfer characteristics : PQ/ B. R, W' h6 q6 C" O+ r- j
Matrix coefficients : BT.2020 non-constant2 z) o/ U5 z) u: R7 |; T
Mastering display color primaries : Display P3
0 @' I# z2 o& u9 u: i# \Mastering display luminance : min: 0.0050 cd/m2, max: 4000 cd/m2- z; U' f$ ^8 e% j3 l6 p
6 @0 L" x" s. \; P' j, |* R) q

1 ~4 R- o# f6 K5 L8 nAudio2 b7 W+ Z! ?6 f! v
ID : 2
; H3 W5 p& m) u# [$ {/ NFormat : E-AC-3 JOC% G# a& ?" ^3 d: Q. f! v
Format/Info : Enhanced AC-3 with Joint Object Coding/ x2 A: Z; D* W& N: Z: O
Commercial name : Dolby Digital Plus with Dolby Atmos
, X; C9 ~$ Q: ~+ ^Codec ID : A_EAC3
/ U, V. M. L# O* F, O9 a; z& X- fDuration : 2 h 13 min8 X( j" l3 @* t
Bit rate mode : Constant
( i* d0 n. K: v8 ?! PBit rate : 768 kb/s
0 B9 Z6 B2 R0 U& ^- d# a# E9 E( sChannel(s) : 6 channels
( x% o, v0 c3 R2 B* ~3 @8 l7 iChannel layout : L R C LFE Ls Rs2 z; e2 K5 o9 W
Sampling rate : 48.0 kHz3 i: f3 V$ p: A) {) Z
Frame rate : 31.250 FPS (1536 SPF)
6 I& n# B( ^/ {- B) l  LCompression mode : Lossy
- J% w8 L8 N+ D# C* ]0 ^* _Stream size : 735 MiB (4%)
; Z3 S7 r/ M+ v% c' ?% E. aTitle : English) ]5 W/ h$ H) z' Q, ]+ [
Language : English6 a% T6 k9 ~3 U5 [
Service kind : Complete Main2 z9 ?/ x! Z# I& f0 D4 H% d) F: ^6 j. }
Default : No
% j6 I# T2 Z" g; KForced : No
6 {1 U0 Z7 b- i- fComplexity index : 16
* C: r% L1 p. {# |2 YNumber of dynamic objects : 15# |2 h; O$ ^5 o2 y3 e
Bed channel count : 1 channel
4 f6 o" y2 J& M" m# n1 U8 h8 qBed channel configuration : LFE

1 u' `5 U* q5 ]蓝光高清网提示您  点击下方附件名称  马上开始下载+ W, V3 j* w/ X6 b6 g

+ B1 s1 a" v$ r) u/ }# S: j; N
/ N8 h# i6 H; X# b; l1 S
多版本下载时请注意区分
0 c3 `( M7 \0 @3 d3 H% }9 @- m8 d2 L/ A
迅雷下载无版权  请使用vuze下载工具下载 可满速下载
vuze教程:https://www.1080pro.net/thread-73751-1-1.html
/ f5 ?2 K, n5 O3 f3 T+ L' s6 G6 i, T( S
黑寡妇4K.Black.Widow.2021.2160p.DSNP.WEB-DL.x265.10bit.HDR.DDP5.1.Atmos-4K电影下载
$ q# M. e' @) P, t
' L% z/ r4 {" S5 q6 x; o黑寡妇4K.Black.Widow.2021.2160p.DSNP.WEB-DL.x265.10bit.HDR.DDP5.1.Atmos【4K 16.01 GB】0 Q( ~- H5 {; N5 e; M3 k
黑寡妇4K.Black.Widow.2021.2160p.DSNP.WEB-DL.x265.10bit.HDR.DDP5.1.Atmos-CM.torrent (文件大小:20.66 KB)
加入蓝光高清网VIP会员  无限制下载本站所有资源---点这里

资源下载、资源播放、字幕使用、无法下载等常见问题---点这里
回复

使用道具 举报

精彩评论31

knsdx 发表于 2021-7-9 23:37:31 来自手机 | 显示全部楼层
漂亮  太快了
回复 支持 反对

使用道具 举报

milanboss手机认证 发表于 2021-7-10 00:48:05 | 显示全部楼层
漂亮  太快了
回复 支持 反对

使用道具 举报

j777cs2oo9手机认证 发表于 2021-7-10 01:56:59 | 显示全部楼层
谢谢分享
回复

使用道具 举报

ITSUKI 发表于 2021-7-10 10:01:45 | 显示全部楼层
太赞了,省下一笔不小的开销,哈哈~~

点评

可以看吗兄弟  详情 回复 发表于 2021-7-10 13:08
回复 支持 1 反对 0

使用道具 举报

shaoxshu手机认证 发表于 2021-7-10 10:25:12 | 显示全部楼层
速度啊!!!!!
回复

使用道具 举报

张凤阳 发表于 2021-7-10 13:07:15 | 显示全部楼层
下载之后怎么不是torrent文件# c, J! o0 [) }' S

点评

可以看,立即下载那里点右键,选择链接另存为,下载下来的文件就是torrent文件了。  详情 回复 发表于 2021-7-11 14:48
回复 支持 反对

使用道具 举报

张凤阳 发表于 2021-7-10 13:08:05 | 显示全部楼层
ITSUKI 发表于 2021-7-10 10:01& `" e& k0 g1 ^& y( n$ u% E+ L
太赞了,省下一笔不小的开销,哈哈~~
$ y' q/ q" N) W3 ~5 A" j7 d
可以看吗兄弟  |6 E- A$ w/ D* S

- R4 T7 Y& |+ q  Z" b3 g! _7 J1 e  r

点评

换个浏览器下载 你的或者清空浏览器缓存 cooking  详情 回复 发表于 2021-7-10 13:18
回复 支持 反对

使用道具 举报

 楼主| 蓝鸟 发表于 2021-7-10 13:18:48 | 显示全部楼层
张凤阳 发表于 2021-7-10 13:08
# R+ d; H! H. p3 J* R: f可以看吗兄弟

/ [0 R* a/ t# ?8 N6 R换个浏览器下载 你的或者清空浏览器缓存 cooking
* f( }# O% x8 w
加入蓝光高清网VIP会员  无限制下载本站所有资源---点这里

资源下载、资源播放、字幕使用、无法下载等常见问题---点这里
回复 支持 反对

使用道具 举报

云淡风清 发表于 2021-7-10 14:58:28 | 显示全部楼层

/ e9 {% }( D0 X- y5 B* C/ ^2 P谢谢分享
回复

使用道具 举报

您需要登录后才可以回帖 登录 | 立即注册

本版积分规则

烧友之家(蓝光高清网)本站内容部分由用户自主分享和转载自互联网,转载目的在于传递更多信息,并不代表本网赞同其观点和对其真实性负责。 如有侵权、违反国家法律政策行为,请联系我们,我们会第一时间及时清除和处理!
蓝光高清网 综合资讯平台
关注我们
  • 官方微信公众号
  • 扫码下载官方APP

X3.4 Licensed© 2001-2013 蓝光高清网 烧友之家APP |网站地图