游客您好
第三方账号登陆
  • 点击联系客服

    在线时间:9:00-18:00

    客服QQ

    1371333023

    电子邮件

    lanniao@1080pro.net
  • 烧友之家APP

    随时掌握烧友资讯

  • 扫描二维码

    关注微信公众号

推荐阅读
蓝鸟
未知星球 | 未知职业
  • 关注0
  • 粉丝2
  • 帖子94272
精选帖子
开启左侧

Eddie.2021.2160p.WEB.H265-4k电影下载—14.52 GB

[复制链接]
蓝鸟 发表于 2021-7-15 00:40:05 | 显示全部楼层 |阅读模式 打印 上一主题 下一主题
Eddie
上映时间:2021年
类型:惊悚 
地区:美国 
导演:迪伦·格雷·马丁
主演:
画质标准:4K  封装音轨:LPCM 
豆瓣评分:7.2分

加入蓝光高清网,轻松下载最新4k资源

您需要 登录 才可以下载或查看,没有帐号?立即注册

x
影片参数
Eddie.2021.2160p.WEB.H265-4k电影信息
, m( P0 Y8 A8 Y9 K& h1 ^Video6 }. i8 o6 |& C6 y- r! v! U
ID : 1. J9 h3 v, K. _8 x0 h. w
Format : HEVC' n( t. o& E: c4 a: T
Format/Info : High Efficiency Video Coding. M% Z9 N7 S5 W( W  Z  y
Format profile : Main 10@L5@High+ Y( n0 z' w' g' r1 m# A
Codec ID : V_MPEGH/ISO/HEVC- Y2 A* B1 d9 `' S! `
Duration : 1 h 39 min7 ?4 `  u' O$ A
Bit rate : 20.6 Mb/s
: N7 @( p. t; y+ L1 t$ CWidth : 3 840 pixels
$ g* l! H: A9 k/ O' m0 xHeight : 2 024 pixels  o. X: z) g) E: x7 i
Display aspect ratio : 1.897! |9 f% u0 p# N6 J( M. W) B
Frame rate mode : Constant* A5 i. b8 W3 k, F. c+ @3 K
Frame rate : 23.976 (23976/1000) FPS( s  |9 L  `" z! n  n, ^3 j
Color space : YUV
* ~+ y0 g3 X+ x5 k, aChroma subsampling : 4:2:0, U6 k0 A3 G) F! c$ g5 {; a( Y
Bit depth : 10 bits
; c6 I1 G4 I9 ~4 B9 A7 f6 e; lBits/(Pixel*Frame) : 0.111
1 z, x% P' j5 {' tStream size : 14.2 GiB (98%)
/ q3 [; N3 P  e' b& V5 J4 mDefault : Yes$ h- U3 R5 q; z
Forced : No
$ }& y  y: T7 `Color range : Limited
  A& {5 w0 C- ~* hColor primaries : BT.709
" K3 l+ {& Q: d8 K; h2 S3 LTransfer characteristics : BT.709
" `1 s8 G  t  i$ V2 E6 \9 b5 b. Q( kMatrix coefficients : BT.709
$ ^% K5 {- ^; [5 o9 K3 r3 F9 t" h, F) J  m0 _

1 i- ~  r5 U4 [' q8 X+ JAudio5 ^" H" A) P% n5 O
ID : 2
0 D; O. a; C; {% j5 ]4 [Format : AC-3
) Y$ p. J: N9 x+ h0 cFormat/Info : Audio Coding 3
4 V) F- E; |, r9 G' G9 m* b4 WCommercial name : Dolby Digital
. X' W8 Z& d, l4 lCodec ID : A_AC3, K7 Y4 d. A# I% x8 P  w
Duration : 1 h 39 min
* _" x9 ]( [2 z0 Z: ~Bit rate mode : Constant# F2 l4 [+ f5 i% z; S$ F3 X
Bit rate : 384 kb/s
; K, X( ^3 |) ~8 H( tChannel(s) : 6 channels
  c9 n" u8 Z8 K4 z3 s: _' XChannel layout : L R C LFE Ls Rs5 R; G$ C6 f, e. j3 J
Sampling rate : 48.0 kHz
7 \0 G4 N. q: g2 a4 zFrame rate : 31.250 FPS (1536 SPF)) ?7 l/ i/ c" @7 z$ l/ R2 w( B
Compression mode : Lossy( ?4 v. g5 d. c8 W/ o7 N
Stream size : 272 MiB (2%)6 s: y8 u+ d; y1 _: h
Title : English
- D$ Q0 r8 O  g; g; ELanguage : English& Y6 G5 r: T* I( Y7 v! I  y8 G7 \
Service kind : Complete Main
! o& S$ _0 o; @2 N- G- @Default : Yes
, v& ^* p6 x4 I1 XForced : No
, P! V* ?! W# t

  o, J$ T/ c& O蓝光高清网提示您  点击下方附件名称  马上开始下载/ y6 T* k! h* l* a

& }, R- e5 }$ ~* h; m* Y; w" N

* A/ M8 E' |) z+ r) iEddie.2021.2160p.WEB.H265-4k电影下载  }! Y; N' w) @, c

# e+ Z( Z( ?0 w; i: d

3 A& {1 A6 t( j2 p" C* AEddie.2021.2160p.WEB.H265【14.52GB】% M4 |  L' {7 u6 N

( H. y4 A2 t/ O$ [ Eddie.2021.2160p.WEB.H265-NOGRP.torrent (文件大小:18.75 KB)
加入蓝光高清网VIP会员  无限制下载本站所有资源---点这里

资源下载、资源播放、字幕使用、无法下载等常见问题---点这里
回复

使用道具 举报

您需要登录后才可以回帖 登录 | 立即注册

本版积分规则

烧友之家(蓝光高清网)本站内容部分由用户自主分享和转载自互联网,转载目的在于传递更多信息,并不代表本网赞同其观点和对其真实性负责。 如有侵权、违反国家法律政策行为,请联系我们,我们会第一时间及时清除和处理!
蓝光高清网 综合资讯平台
关注我们
  • 官方微信公众号
  • 扫码下载官方APP

X3.4 Licensed© 2001-2013 蓝光高清网 烧友之家APP |网站地图