游客您好
第三方账号登陆
  • 点击联系客服

    在线时间:9:00-18:00

    客服QQ

    1371333023

    电子邮件

    lanniao@1080pro.net
  • 烧友之家APP

    随时掌握烧友资讯

  • 扫描二维码

    关注微信公众号

推荐阅读
蓝鸟
未知星球 | 未知职业
  • 关注0
  • 粉丝2
  • 帖子94272
精选帖子
开启左侧

空中大灌篮:新传奇 4k Space.Jam.a.New.Legacy.2021.2160p.HMAX.WEB-DL.x265.10bit.HDR.DDP5.1.Atmos-4k电影下载—14.98 GB

[复制链接]
蓝鸟 发表于 2021-7-16 21:23:09 | 显示全部楼层 |阅读模式 打印 上一主题 下一主题
空中大灌篮:新传奇
上映时间:2021年
类型:喜剧 动画 
地区:美国 
导演:马尔科姆·D·李
主演:勒布朗·詹姆斯 / 赞达亚 / 吉姆·卡明斯 / 索尼夸·马丁-格林 / 唐·钱德尔
画质标准:4K HDR  封装音轨:Dolby TrueHD 5.1 Dolby Atmos 
豆瓣评分:6.3分

加入蓝光高清网,轻松下载最新4k资源

您需要 登录 才可以下载或查看,没有帐号?立即注册

x
本帖最后由 蓝鸟 于 2021-7-16 21:30 编辑
1 ^* Q5 R- w; }$ b; j# B* @/ Y6 |4 ^5 w
简       介3 B5 t6 U+ k" f8 }, W

( o; @; z2 ?' Q3 j1 q
0 O& y% N; ~( M/ Y1 v
  故事讲述勒布朗与他的小儿子多姆被人工智能困在了“华纳兄弟电影宇宙”虚拟空间,为了能安全回家,他必须率兔八哥、罗拉兔和那些不守规矩的乐一通卡通,战胜一支全明星篮球队。这场对决是勒布朗人生的最大挑战,也将重新定义他与儿子间的关系,并让勒布朗领悟到“做自己”的真谛;乐一通的小伙伴们则要打破陈规,超常发挥自己的独特技能,令勒布朗都刮目相看。然而他们面对的,是一群前所未见、所向披靡的人工智能强化型对手“末日狂徒队”,勒布朗和乐一通们真的能成功击败他们吗?0 ^! k+ X: U" k# w0 ^. R. u! {. O

9 @6 J" K) K- ~1 q( U

, C' u: |) ?- n0 {) W9 \7 m影片参数" O: C; s3 X* ?1 z
太空也入樽:改朝换代(港) / 太空也入樽2(港) / 怪物奇兵 全新世代(台) / 空中大灌篮2:新传奇 / 怪物奇兵2 / 宇宙大灌篮2 / 宇宙大灌篮:新传承 / Space Jam 2008 / Space Jam 2: A Jogada Continua / Space Jam Twenty 16/空中大灌篮:新传奇4k Space.Jam.a.New.Legacy.2021.2160p.HMAX.WEB-DL.x265.10bit.HDR.DDP5.1.Atmos-4k电影信息# u) A4 f3 Y. m" s7 P, k8 A0 @
Video
0 ?* B, Y! x4 T5 l1 EID : 1
8 N+ v; I6 n) S) X/ X  TFormat : HEVC
; K" R! @7 b8 d5 q& m- hFormat/Info : High Efficiency Video Coding
) @- N% W" a5 C! NFormat profile : Main 10@L5@Main9 o7 h" D) C1 |+ Y8 {
HDR format : SMPTE ST 2086, HDR10 compatible$ U; c% \3 x6 w  u! A* B
Codec ID : V_MPEGH/ISO/HEVC8 c' W9 e+ a& @" U' _% @6 H
Duration : 1 h 55 min
0 r1 C7 W( _% F/ g  b3 Q# HBit rate : 17.8 Mb/s
: G3 b9 d/ ^2 N* ?Width : 3 840 pixels/ ]" G+ ?$ \+ K
Height : 2 160 pixels* k  y0 _4 S2 `: J5 Z/ K5 N! Q9 C
Display aspect ratio : 16:90 _) W; B: w2 L  U/ I7 V
Frame rate mode : Constant' y8 D" @- ]- U# h( t
Frame rate : 23.976 (24000/1001) FPS0 L  }% W1 p( Q5 j
Color space : YUV
( x& B+ j1 j, J: G- J5 \, |Chroma subsampling : 4:2:0
0 E0 U8 \& F1 pBit depth : 10 bits
; A: Q2 d0 g  L% U: i! D$ hBits/(Pixel*Frame) : 0.0907 M2 A  C5 @) n8 c, e2 H. y9 ^
Stream size : 14.4 GiB (96%)0 w0 @5 y: z1 `; u* U
Writing library : x265 3.4hy:[Linux][GCC 7.5.0][64 bit] 10bit$ Y" k4 Z/ Y" _  {, l  L
Encoding settings : cpuid=1111039 / frame-threads=1 / wpp / no-pmode / no-pme / no-psnr / no-ssim / log-level=2 / input-csp=1 / input-res=3840x2160 / interlace=0 / total-frames=0 / level-idc=0 / high-tier=1 / uhd-bd=0 / ref=4 / no-allow-non-conformance / repeat-headers / annexb / no-aud / no-hrd / info / hash=0 / no-temporal-layers / no-open-gop / min-keyint=96 / keyint=96 / gop-lookahead=0 / bframes=3 / b-adapt=2 / b-pyramid / bframe-bias=0 / rc-lookahead=25 / lookahead-slices=4 / scenecut=40 / hist-scenecut=0 / radl=0 / no-splice / no-intra-refresh / ctu=64 / min-cu-size=8 / rect / no-amp / max-tu-size=32 / tu-inter-depth=1 / tu-intra-depth=1 / limit-tu=0 / rdoq-level=2 / dynamic-rd=0.00 / no-ssim-rd / signhide / no-tskip / nr-intra=0 / nr-inter=0 / no-constrained-intra / strong-intra-smoothing / max-merge=3 / limit-refs=3 / limit-modes / me=3 / subme=3 / merange=57 / temporal-mvp / no-frame-dup / no-hme / weightp / no-weightb / no-analyze-src-pics / deblock=0:0 / sao / no-sao-non-deblock / rd=4 / selective-sao=4 / no-early-skip / rskip / no-fast-intra / no-tskip-fast / no-cu-lossless / no-b-intra / no-splitrd-skip / rdpenalty=0 / psy-rd=2.00 / psy-rdoq=1.00 / no-rd-refine / no-lossless / cbqpoffs=0 / crqpoffs=0 / rc=abr / bitrate=18000 / qcomp=0.60 / qpstep=4 / stats-write=0 / stats-read=2 / cplxblur=20.0 / qblur=0.5 / vbv-maxrate=24500 / vbv-bufsize=24500 / vbv-init=0.6 / vbv-end=0.6 / vbv-end-fr-adj=0.0 / ipratio=1.40 / pbratio=1.30 / aq-mode=2 / aq-strength=1.00 / cutree / zone-count=0 / no-strict-cbr / qg-size=32 / no-rc-grain / qpmax=69 / qpmin=0 / no-const-vbv / sar=0 / overscan=0 / videoformat=5 / range=0 / colorprim=9 / transfer=16 / colormatrix=9 / chromaloc=0 / display-window=0 / master-display=G(13250,34500)B(7500,3000)R(34000,16000)WP(15635,16450)L(10000000,1) / cll=677,233 / min-luma=0 / max-luma=1023 / log2-max-poc-lsb=8 / vui-timing-info / vui-hrd-info / no-concatenation / slices=1 / no-opt-qp-pps / no-opt-ref-list-length-pps / no-multi-pass-opt-rps / scenecut-bias=0.05 / hist-threshold=0.01 / no-opt-cu-delta-qp / no-aq-motion / hdr10 / no-hdr10-opt / no-dhdr10-opt / no-idr-recovery-sei / analysis-reuse-level=0 / analysis-save-reuse-level=0 / analysis-load-reuse-level=0 / scale-factor=0 / refine-intra=0 / refine-inter=0 / refine-mv=1 / refine-ctu-distortion=0 / no-limit-sao / ctu-info=0 / no-lowpass-dct / refine-analysis-type=0 / copy-pic=1 / max-ausize-factor=1.0 / no-dynamic-refine / no-single-sei / no-hevc-aq / no-svt / no-field / qp-adaptation-range=1.00 / no-scenecut-aware-qpconformance-window-offsets / right=0 / bottom=0 / decoder-max-rate=0
9 R9 o+ p  Y. ^1 L8 W# V. ?, R6 u& iDefault : Yes8 K5 }& F: a1 `3 u% k8 O
Forced : No
5 B6 y' |3 R" ?2 t& {0 v5 ?Color range : Limited
+ t0 b: m  D3 c7 G% L9 y: N, L  \Color primaries : BT.20202 n: Y; b) `3 ]+ V7 T9 Q4 U
Transfer characteristics : PQ4 m1 }; C" o3 [" `
Matrix coefficients : BT.2020 non-constant
7 N4 n9 Y6 y/ N* G. `% k2 |) HMastering display color primaries : Display P3
9 R* B2 a+ W1 K$ e" k% G$ H; G. M- wMastering display luminance : min: 0.0001 cd/m2, max: 1000 cd/m2
8 r0 q$ ^4 M* m" \6 cMaximum Content Light Level : 677 cd/m2
: B. j4 Q% l5 R& J2 n& w; OMaximum Frame-Average Light Level : 233 cd/m2
& y4 |' L# N+ H6 d' }6 V& n: s7 t
3 u8 b: ]- k8 m8 Q
Audio
# p; ]' E" y, }7 e  {ID : 29 d( T! ]# A7 I& y2 y7 W5 w1 i
Format : E-AC-3 JOC: T$ i, D) M- B4 V$ E  t- X$ t
Format/Info : Enhanced AC-3 with Joint Object Coding
7 c2 E7 H1 B( B# Y3 g5 WCommercial name : Dolby Digital Plus with Dolby Atmos- s7 u- _4 _+ J) T* U
Codec ID : A_EAC3
' l1 E, T4 V  e) oDuration : 1 h 55 min2 s0 D5 D3 w" O: r  |, D4 p
Bit rate mode : Constant
1 d. Q! D3 S# U  A# o: ]Bit rate : 768 kb/s9 T0 t1 w  H5 e6 h
Channel(s) : 6 channels
( ?7 d' M( L4 FChannel layout : L R C LFE Ls Rs
. P- j( x9 M2 k" ?9 b0 A( tSampling rate : 48.0 kHz1 u: O- b. J3 j2 _3 h+ M
Frame rate : 31.250 FPS (1536 SPF)- w  W  U3 s. N$ n- o
Compression mode : Lossy5 j  Q( f% u: A4 x/ }
Stream size : 634 MiB (4%)
, g, [6 B/ g, [& }( p& V6 |Title : English
' i; G: c. w% yLanguage : English6 i6 Z# P) o( c, D9 z0 J, {  A7 T
Service kind : Complete Main
- p9 Q" t; J# f+ x' N0 EDefault : No
8 j7 Q, j( D, K6 R6 m& y9 A. nForced : No5 \$ t, E  M2 N. g  y# |* X1 l
Complexity index : 16
: q, b4 {9 G2 NNumber of dynamic objects : 15
4 B+ f- T! u3 XBed channel count : 1 channel
* N# A4 w% W0 N4 J* ^( O, F2 ]Bed channel configuration : LFE

0 v3 i3 z: X9 |: x蓝光高清网提示您  点击下方附件名称  马上开始下载
1 n4 r7 T7 X# [! x9 c
4 U% r! {3 i+ k9 o0 R+ |

9 n1 r# W" g2 o4 Y太空也入樽:改朝换代(港) / 太空也入樽2(港) / 怪物奇兵 全新世代(台) / 空中大灌篮2:新传奇 / 怪物奇兵2 / 宇宙大灌篮2 / 宇宙大灌篮:新传承 / Space Jam 2008 / Space Jam 2: A Jogada Continua / Space Jam Twenty 16/空中大灌篮:新传奇4k Space.Jam.a.New.Legacy.2021.2160p.HMAX.WEB-DL.x265.10bit.HDR.DDP5.1.Atmos-4k电影下载
9 A* Z6 C5 Z8 i, H8 w0 I" ?0 z+ u2 |& c% i
空中大灌篮:新传奇4k Space.Jam.a.New.Legacy.2021.2160p.HMAX.WEB-DL.x265.10bit.HDR.DDP5.1.Atmos【14.98GB】7 |5 c# T* j+ t/ X7 ~% z
空中大灌篮:新传奇4k Space.Jam.a.New.Legacy.2021.2160p.HMAX.WEB-DL.x265.1.torrent (文件大小:19.39 KB)
加入蓝光高清网VIP会员  无限制下载本站所有资源---点这里

资源下载、资源播放、字幕使用、无法下载等常见问题---点这里
回复

使用道具 举报

精彩评论3

shaoxshu手机认证 发表于 7 天前 | 显示全部楼层
没有字幕么
回复 支持 反对

使用道具 举报

ggang1 发表于 6 天前 | 显示全部楼层
谢楼主的精彩分享!
回复 支持 反对

使用道具 举报

MR-YANG手机认证 发表于 前天 19:12 | 显示全部楼层

/ L: C  r3 M6 g) V' r谢楼主的精彩分享!
回复 支持 反对

使用道具 举报

您需要登录后才可以回帖 登录 | 立即注册

本版积分规则

烧友之家(蓝光高清网)本站内容部分由用户自主分享和转载自互联网,转载目的在于传递更多信息,并不代表本网赞同其观点和对其真实性负责。 如有侵权、违反国家法律政策行为,请联系我们,我们会第一时间及时清除和处理!
蓝光高清网 综合资讯平台
关注我们
  • 官方微信公众号
  • 扫码下载官方APP

X3.4 Licensed© 2001-2013 蓝光高清网 烧友之家APP |网站地图