游客您好
第三方账号登陆
  • 点击联系客服

    在线时间:9:00-18:00

    客服QQ

    1371333023

    电子邮件

    lanniao@1080pro.net
  • 烧友之家APP

    随时掌握烧友资讯

  • 扫描二维码

    关注微信公众号

推荐阅读
蓝鸟
未知星球 | 未知职业
  • 关注0
  • 粉丝2
  • 帖子94272
精选帖子
开启左侧

死于枪战 4k Die.in.a.Gunfight.2021.2160p.WEB-DL.x265.10bit.SDR.DTS-HD.MA.5.1-4k 电影下载—10.04 GB

[复制链接]
蓝鸟 发表于 2021-7-16 21:33:52 | 显示全部楼层 |阅读模式 打印 上一主题 下一主题
死于枪战
上映时间:2021年
类型:喜剧 动作 爱情 犯罪 
地区:美国 
导演:科林·希夫利
主演:迪耶戈·博内塔 / 亚历珊德拉·达达里奥 / 崔维斯·费米尔 / 贾斯汀·查特文 / Wade Allain-Marcus
画质标准:4K SDR  封装音轨: 
豆瓣评分:4.2分

加入蓝光高清网,轻松下载最新4k资源

您需要 登录 才可以下载或查看,没有帐号?立即注册

x
简       介( C6 y2 N  t* d
7 [( w# Z/ o/ L% I
  A young New Yorker falls in love with the daughter of his father's nemesis, setting in motion a Romeo and Juliet-like forbidden romance.: V) R2 R& T, N) S) X" c9 ^

  N+ ^+ ~3 e$ Y6 ^

; n9 s$ ^( |! z; [影片参数
! E$ U' K6 O% ~% P5 N0 N" A
枪战之死/死于枪战4k Die.in.a.Gunfight.2021.2160p.WEB-DL.x265.10bit.SDR.DTS-HD.MA.5.1-4k电影信息) c) R7 y9 L# P+ Z( }! ~) r# D9 f
Video3 i8 o7 w8 Q, e4 T) `8 W
ID : 17 j1 v+ |$ z- x- c9 P* U8 _
Format : HEVC$ q" z, A2 ~, V) B+ ^
Format/Info : High Efficiency Video Coding
3 e$ L' s+ D; oFormat profile : Main 10@L5@High3 E5 ?# X* C2 {! T
Codec ID : V_MPEGH/ISO/HEVC
4 X$ l. X: B% _Duration : 1 h 32 min. z. K/ q* h0 [& E- j8 I/ g
Bit rate : 11.8 Mb/s( ^! Z4 X: X( L5 w: q+ _) P
Width : 3 828 pixels
( D3 f* \% P( M* HHeight : 1 592 pixels
" m2 }2 I4 u- o4 n$ CDisplay aspect ratio : 2.40:1
  Z/ z. b! D) \6 A8 G6 N3 CFrame rate mode : Constant
% U' r& S& s) k  I+ B& T( [Frame rate : 23.976 (23976/1000) FPS
+ d% ]# n6 X5 g/ f2 jColor space : YUV; i$ U  C% E2 Z
Chroma subsampling : 4:2:0; U+ b, ]5 d- i  B
Bit depth : 10 bits
# t) S( r9 }& V5 `( A; CBits/(Pixel*Frame) : 0.081
! q1 _3 E% H, o$ y7 Q* @Stream size : 7.63 GiB (76%)' k( {/ o8 y8 e, @% F0 Z
Default : Yes
7 z  E0 O' E) b# qForced : No
' g0 `+ _, W6 X- V: U7 QColor range : Limited
+ r; R+ H7 R6 E+ rColor primaries : BT.709
; t) q1 J# t" X' ]! Y1 B5 |( YTransfer characteristics : BT.709
3 \7 Q4 }, m2 G! Z0 O3 M/ oMatrix coefficients : BT.709
% t' d& o  S# E( ?7 O6 s8 ]9 B( T; _
: _  z$ h+ C" [

7 ]% g, l, c4 [5 z( ~Audio #1
: n) z, `$ k. K4 P1 a1 h2 B. `8 iID : 23 K6 w/ q) G' \
Format : DTS XLL" x, O/ o8 e: K7 x( Z% O! p
Format/Info : Digital Theater Systems
( J0 n4 ?" X# n$ t, s- U+ ^Commercial name : DTS-HD Master Audio. a6 |0 c* e" Z6 f9 V2 ?
Codec ID : A_DTS
4 Z# C, b2 E' ^/ CDuration : 1 h 32 min
/ f  z& Q3 g$ c' S) e$ T4 KBit rate mode : Variable
/ E! k/ A( \8 g- z& o1 ?3 z- lBit rate : 3 310 kb/s
/ i' i; D% X- q' @3 N) ?. G! u2 hChannel(s) : 6 channels3 O) s4 v$ S' ?
Channel layout : C L R Ls Rs LFE0 H- O- s# c  n# B! f
Sampling rate : 48.0 kHz
/ s- g! j# X, W5 \  K8 J* F+ \! tFrame rate : 93.750 FPS (512 SPF)
; D; ~+ d3 P0 f0 o7 G* c# e; sBit depth : 24 bits
, \: b% n* y. L$ tCompression mode : Lossless
( b- Y0 a- {5 s- U7 J8 N3 BStream size : 2.13 GiB (21%)
  N" _* v7 U) v; eTitle : DTS-HD MA 5.1. S, {7 v7 C% B$ j
Language : English( ?, M' D* o- c3 x" h
Default : Yes) h  @: p7 }! l
Forced : No
! [: h: K" c- q: g  F: S! t" n
! b! V2 v) F# v/ s8 K& e$ R

8 u$ e* A7 h7 D2 BAudio #2
: f! B+ x  h+ i$ `ID : 3  t* s. T* c2 T- f- t1 B7 C* C
Format : AC-3/ {8 T& P8 R; P& m. g  M) w( ~
Format/Info : Audio Coding 3
# P, R1 i- M+ N) n+ n* Y- DCommercial name : Dolby Digital
* h* g; J) ^9 t" Z0 f7 h+ D) ^Codec ID : A_AC3& z; E" j% {3 N! y+ `
Duration : 1 h 32 min
8 q% E+ L* q+ i% \5 @; {5 ]: G0 ~# S# LBit rate mode : Constant
! K( {9 R4 ]3 c% A3 x0 IBit rate : 384 kb/s
/ U7 g# H" [0 x5 wChannel(s) : 6 channels
, h- A! N5 ~, X0 L+ \Channel layout : L R C LFE Ls Rs  }. _; I' O& b$ p' Q8 @( g; E
Sampling rate : 48.0 kHz3 q1 Y, [( ]$ R% s0 @. P) ^
Frame rate : 31.250 FPS (1536 SPF)
: P6 i  ]/ H* M; I) N+ T5 V: iCompression mode : Lossy
) K4 o/ B" s0 |2 W; Q2 PStream size : 253 MiB (2%)
0 x* h2 R* P; R, g- w4 h8 q/ X6 ZTitle : DD 5.1
$ P5 \, j1 ^% Y: K" zLanguage : English5 f8 O+ ~: ]* _
Service kind : Complete Main8 }9 {% ^2 u" s" }
Default : No
5 n6 S" k2 ?: F$ A  o2 e/ TForced : No
; }- a- f  J* @( u: z( G

6 Y% Z0 _) L9 E/ [. c, t( |蓝光高清网提示您  点击下方附件名称  马上开始下载
* h2 v( ?' N, T
  }; [( \# ^7 b' p8 A

* \- z* X' K4 y. i5 J; _, k枪战之死/死于枪战4k Die.in.a.Gunfight.2021.2160p.WEB-DL.x265.10bit.SDR.DTS-HD.MA.5.1-4k电影下载) G3 k% Z5 u0 ^
5 o% p5 L+ I, ], ?; i1 ~1 w, b& ~: h
死于枪战4k Die.in.a.Gunfight.2021.2160p.WEB-DL.x265.10bit.SDR.DTS-HD.MA.5.1【10.04GB】
8 v, M) ^! e# o% a5 }/ |0 e 死于枪战4k Die.in.a.Gunfight.2021.2160p.WEB-DL.x265.10bit.SDR.DTS-HD.MA.5.torrent (文件大小:13.22 KB)
加入蓝光高清网VIP会员  无限制下载本站所有资源---点这里

资源下载、资源播放、字幕使用、无法下载等常见问题---点这里
回复

使用道具 举报

您需要登录后才可以回帖 登录 | 立即注册

本版积分规则

烧友之家(蓝光高清网)本站内容部分由用户自主分享和转载自互联网,转载目的在于传递更多信息,并不代表本网赞同其观点和对其真实性负责。 如有侵权、违反国家法律政策行为,请联系我们,我们会第一时间及时清除和处理!
蓝光高清网 综合资讯平台
关注我们
  • 官方微信公众号
  • 扫码下载官方APP

X3.4 Licensed© 2001-2013 蓝光高清网 烧友之家APP |网站地图