游客您好
第三方账号登陆
  • 点击联系客服

    在线时间:9:00-18:00

    客服QQ

    1371333023

    电子邮件

    lanniao@1080pro.net
  • 烧友之家APP

    随时掌握烧友资讯

  • 扫描二维码

    关注微信公众号

推荐阅读
蓝鸟
未知星球 | 未知职业
  • 关注0
  • 粉丝2
  • 帖子94272
精选帖子
开启左侧

明日之战 4k The.Tomorrow.War.2021.2160p.AMZN.WEB-DL.x265.10bit.HDR10Plus.DDP5.1-4k电影下载—14.94 GB

  [复制链接]
蓝鸟 发表于 2021-7-16 21:43:51 | 显示全部楼层 |阅读模式 打印 上一主题 下一主题
明日之战
上映时间:2021年
类型:动作 科幻 
地区:美国 
导演:克里斯·麦凯
主演:克里斯·帕拉特 / 伊冯娜·斯特拉霍夫斯基 / J·K·西蒙斯 / 艾德文·霍德吉 / 山姆·理查森
画质标准:4K HDR  封装音轨:Dolby TrueHD 5.1 
豆瓣评分:6.5分

加入蓝光高清网,轻松下载最新4k资源

您需要 登录 才可以下载或查看,没有帐号?立即注册

x
简       介& l5 P( G# o& i, p! w2 T8 l7 W

. y8 \9 r/ ^8 ^; A' Y- n4 f% H  克里斯·帕拉特商谈主演科幻影片[幽灵征募](Ghost Draft,暂译),克里斯·麦凯([乐高大电影])执导,扎克·迪恩([陷阱])操刀剧本。故事讲述一对父子被征募到一场未来战争中,这场战争决定着人类的命运。天空之舞(Skydance)出资制作。
2 W* ?5 N6 x/ Q5 T! T0 M. y2 {
2 A- H# z7 f; x3 v8 `2 {影片参数! r5 Q4 I% L4 }- G
幽灵征募 / 幽灵分遣队 / Ghost Draft/明日之战4k The.Tomorrow.War.2021.2160p.AMZN.WEB-DL.x265.10bit.HDR10Plus.DDP5.1-4k电影信息& z1 h6 J. t( [$ J
Video1 U5 d& I9 B) p" m$ {5 P
ID : 1
5 b2 `0 \* V) vFormat : HEVC" N9 s& e2 r8 q3 f5 K. w
Format/Info : High Efficiency Video Coding/ z0 M5 `5 {  r
Format profile : Main 10@L5@Main
  e  s( ?$ p9 b9 ~; z# ?) S5 `HDR format : SMPTE ST 2094 App 4, Version 1, HDR10+ Profile B compatible
& U& B+ m2 }0 a2 }6 `Codec ID : V_MPEGH/ISO/HEVC
: W/ m% X% ]6 _, d+ `Duration : 2 h 18 min+ [! T' w" |* y& i) X/ w# [
Bit rate : 14.4 Mb/s) V1 g4 J1 O. r. c5 N1 d
Width : 3 840 pixels
$ J1 Z. x! {- C6 v5 DHeight : 1 600 pixels
. ^9 v/ C; ]/ ~& b& U' H7 rDisplay aspect ratio : 2.40:1, E% K" @* M  g: b8 `* Z7 U0 Y
Frame rate mode : Constant
, m1 |5 i5 l; dFrame rate : 23.976 (24000/1001) FPS
, e( v! g8 N" NColor space : YUV
; f, i# D8 z5 h. z9 TChroma subsampling : 4:2:09 y& V( a' j0 P# n9 ]
Bit depth : 10 bits4 Q8 d9 H) x; @+ O. E* h% T0 ?
Bits/(Pixel*Frame) : 0.098: i1 F, z% _: M; m( x5 |  J- _- h
Stream size : 13.9 GiB (94%), h# o% d5 n, A- F0 [/ c
Default : Yes( ]$ c/ Q6 I6 ?" b
Forced : No
/ V" h, E- f" ^( b3 K0 h& vColor range : Limited" F8 W5 o/ i) ~( R1 S4 {2 U
Color primaries : BT.2020( p7 c2 _6 d8 D
Transfer characteristics : PQ
( P9 \* Q% V0 K5 ]# s+ O6 KMatrix coefficients : BT.2020 non-constant
+ E5 {2 E: ?+ ]* K, a0 v* kMastering display color primaries : Display P3: Q/ h0 d6 M1 n* T
Mastering display luminance : min: 0.0001 cd/m2, max: 1000 cd/m21 F/ E9 L/ A6 k7 u& q0 u" R; x5 n
Maximum Content Light Level : 956 cd/m2. s0 l1 a) x  V
Maximum Frame-Average Light Level : 570 cd/m2
7 X+ S9 n- F/ [# K% x/ w  ^6 M
) ]8 e6 r; W$ ?! x2 D

9 ?  f! c7 w% @3 @+ F3 h0 @: L) K+ c! d  @Audio
7 e+ A2 a+ a: I; O& D3 d0 v+ BID : 21 l' u8 A; r3 T
Format : E-AC-3% R% f1 E5 ?3 A& r+ z
Format/Info : Enhanced AC-3
$ O$ p4 Y. d: F7 r8 l( l/ LCommercial name : Dolby Digital Plus3 q+ c" I3 g; T/ n6 y9 f! ^. o
Codec ID : A_EAC3
' e8 X& v: j& n1 PDuration : 2 h 18 min3 s: ]1 w3 s* a1 O
Bit rate mode : Constant
* ^0 Z6 S' M6 w1 V: D: ~Bit rate : 640 kb/s
& W8 @+ z: _, d" n' X6 TChannel(s) : 6 channels  i1 j7 [4 h% q  S8 V
Channel layout : L R C LFE Ls Rs
, ]3 n) ~! j  R$ n7 c; cSampling rate : 48.0 kHz$ I+ U8 b! x9 j( \+ c& |* M
Frame rate : 31.250 FPS (1536 SPF)7 W' K" g" `3 j5 c
Compression mode : Lossy
  X, _4 ?' i. Z# T* `0 OStream size : 632 MiB (4%); M0 w2 R2 ^6 i. N! s
Language : English
0 ]; Z8 z  ?$ L! Y) R7 K. G6 sService kind : Complete Main- G: A5 K4 q! f! C) O5 A9 m
Default : Yes
6 P& c$ U5 u/ o/ B* `9 @Forced : No

% o& ^8 Q! s" f蓝光高清网提示您  点击下方附件名称  马上开始下载
9 F( c# ~2 I0 K& }: a" i
9 ~/ @; h# ~" Q% t- k/ i# r幽灵征募 / 幽灵分遣队 / Ghost Draft/明日之战4k The.Tomorrow.War.2021.2160p.AMZN.WEB-DL.x265.10bit.HDR10Plus.DDP5.1-4k电影下载
1 ]% P( f$ a6 f
- m% M. R# m* S; r请勿使用迅雷下载,此资源迅雷下载会提示敏感资源没有版权,请更换其他下载软件下载(推荐使用115或者vuze下载)
% t+ h' v% Z0 G2 Z+ d) d
- _" b) `0 T; [
vuze下载地址https://www.1080pro.net/thread-73751-1-1.html, W* h/ }, ~8 ^7 b
: n0 W$ b) \0 D' h: w' d9 H* P- P
明日之战4k The.Tomorrow.War.2021.2160p.AMZN.WEB-DL.x265.10bit.HDR10Plus.DDP5.1-内封中字【14.94GB】
5 R6 Z' c. z3 R, w/ v+ p4 U 明日之战4k The.Tomorrow.War.2021.2160p.AMZN.WEB-DL.x265.10bit.HDR10Plus.D 1.torrent (文件大小:75.43 KB)
加入蓝光高清网VIP会员  无限制下载本站所有资源---点这里

资源下载、资源播放、字幕使用、无法下载等常见问题---点这里
回复

使用道具 举报

精彩评论5

感谢楼主分享,资源是我想要的
回复 支持 反对

使用道具 举报

感谢楼主分享,资源是我想要的
回复 支持 反对

使用道具 举报

寧靜的聲音 发表于 5 天前 | 显示全部楼层

3 }2 H* h* ]5 \0 K- \6 Q  f感谢楼主分享,资源是我想要的
回复 支持 反对

使用道具 举报

ppg夢 发表于 4 天前 来自手机 | 显示全部楼层
感谢楼主分享,资源是我想要的
回复 支持 反对

使用道具 举报

匿名  发表于 半小时前
支持一下
回复

使用道具

您需要登录后才可以回帖 登录 | 立即注册

本版积分规则

烧友之家(蓝光高清网)本站内容部分由用户自主分享和转载自互联网,转载目的在于传递更多信息,并不代表本网赞同其观点和对其真实性负责。 如有侵权、违反国家法律政策行为,请联系我们,我们会第一时间及时清除和处理!
蓝光高清网 综合资讯平台
关注我们
  • 官方微信公众号
  • 扫码下载官方APP

X3.4 Licensed© 2001-2013 蓝光高清网 烧友之家APP |网站地图