游客您好
第三方账号登陆
  • 点击联系客服

    在线时间:9:00-18:00

    客服QQ

    1371333023

    电子邮件

    lanniao@1080pro.net
  • 烧友之家APP

    随时掌握烧友资讯

  • 扫描二维码

    关注微信公众号

推荐阅读
蓝鸟
未知星球 | 未知职业
  • 关注0
  • 粉丝2
  • 帖子94272
精选帖子
开启左侧

火药奶昔 4k Gunpowder.Milkshake.2021.2160p.NF.WEBRip.DDP5.1.Atmos.x265-4k电影下载—20.41 GB

[复制链接]
蓝鸟 发表于 2021-7-17 21:10:51 | 显示全部楼层 |阅读模式 打印 上一主题 下一主题
火药奶昔
上映时间:2021年
类型:动作 惊悚 冒险 
地区:美国 
导演:纳沃特·帕普莎多
主演:凯伦·吉兰 / 琳娜·海蒂 / 卡拉·古奇诺 / 杨紫琼 / 安吉拉·贝塞特
画质标准:4K  封装音轨:Dolby TrueHD 5.1 Dolby Atmos 
豆瓣评分:5.4分

加入蓝光高清网,轻松下载最新4k资源

您需要 登录 才可以下载或查看,没有帐号?立即注册

x
简       介
* p) z) l- k& \9 s+ C4 z# u0 h0 {' F$ `- o1 y

- T8 I2 d  i6 j6 |: |  凯伦·吉兰(《复仇者联盟4》)、杨紫琼、琳娜·海蒂(《权力的游戏》)、安吉拉·贝塞特(《黑豹》)将联袂出演全女性卡司动作惊悚片《火药奶昔》,亚伦·凯莎莱斯和纳沃特·帕普莎多(《大坏狼》)执导,两人同Ehud Lavski编写剧本,金牌动作片制作人Andrew Rona和Alex Heineman(《空中营救》《通勤营救》)担任制片。7 A- a1 t7 T4 _9 z3 t+ H
  影片讲述了跨越三代人的女性杀手故事。斯嘉丽(海蒂 饰)是一名专业杀手,为了保护幼女伊娃(吉兰 饰)的安全,她将女儿托付给老友,隐姓埋名。多年后,伊娃走上了母亲的老路,成为冷血无情的刺客。在一次行动中,伊娃不慎让事态失控,令无辜的八岁小女孩陷入险境。伊娃于心不忍,为了救人,只能背叛组织。命运最终让母女重逢,她们联合其他退休的女杀手,一起向夺走了她们一切的杀手组织发起复仇。
2 F- e) b9 F) \' M  S. y

7 i" [3 I8 T6 Z, |% k

6 e7 P/ M# E) u) {& e& L影片参数5 U! ]. ?! ?4 V9 x
Bloody Milkshake/火药奶昔4k Gunpowder.Milkshake.2021.2160p.NF.WEBRip.DDP5.1.Atmos.x265-4k电影信息
% [7 u( E7 l/ c. DVideo* y* ?( p$ b# B* w- Z! @4 E/ u
ID : 1  N8 V) Q' I2 R# P4 J+ o% }
Format : HEVC8 f0 s1 P4 u9 y5 |
Format/Info : High Efficiency Video Coding
" U) h& V1 t: q4 E( K3 r9 h3 t7 sFormat profile : Main@L5.1@High- O6 T; f( k/ @: x$ p: F! O, a
Codec ID : V_MPEGH/ISO/HEVC( n. A$ r+ [! f9 H. K, i. P
Duration : 1 h 54 min" J" r# b9 J* M" Q; `3 f
Bit rate : 24.7 Mb/s  j5 R0 |1 h& [
Width : 3 840 pixels
% E- a" w3 M6 ^5 q! `Height : 1 610 pixels
6 A/ a- [8 O) W/ W/ G0 ODisplay aspect ratio : 2.40:1
4 l) K4 p$ w- @Frame rate mode : Constant3 r% q9 e9 n, u, o, P
Frame rate : 24.000 FPS3 C1 C3 v5 `1 y/ e8 ]
Color space : YUV
- g) B* n4 v1 _$ T: vChroma subsampling : 4:2:0 (Type 2)! d; Z$ \/ k0 {5 `4 X1 H) r
Bit depth : 8 bits
- B5 c1 S6 y; ~5 R+ `Bits/(Pixel*Frame) : 0.166
1 ^, a- X* s, h6 O% Y4 n. H# T0 I% UStream size : 19.8 GiB (97%)& d% J" E$ \/ F
Writing library : x265 3.5+10-82786fccc:[Windows][GCC 11.1.0][64 bit] 8bit+10bit+12bit$ a) \8 a* v$ [  ]: c: m  p
Encoding settings : cpuid=1111039 / frame-threads=4 / numa-pools=24 / wpp / no-pmode / no-pme / no-psnr / ssim / log-level=2 / input-csp=1 / input-res=3840x1610 / interlace=0 / total-frames=165316 / level-idc=51 / high-tier=1 / uhd-bd=0 / ref=4 / no-allow-non-conformance / repeat-headers / annexb / no-aud / no-eob / no-eos / hrd / info / hash=0 / no-temporal-layers / no-open-gop / min-keyint=5 / keyint=240 / gop-lookahead=0 / bframes=8 / b-adapt=2 / b-pyramid / bframe-bias=0 / rc-lookahead=72 / lookahead-slices=0 / scenecut=40 / hist-scenecut=0 / radl=0 / no-splice / no-intra-refresh / ctu=64 / min-cu-size=8 / no-rect / no-amp / max-tu-size=32 / tu-inter-depth=1 / tu-intra-depth=1 / limit-tu=0 / rdoq-level=2 / dynamic-rd=0.00 / no-ssim-rd / signhide / no-tskip / nr-intra=0 / nr-inter=0 / no-constrained-intra / no-strong-intra-smoothing / max-merge=4 / limit-refs=3 / no-limit-modes / me=3 / subme=5 / merange=48 / temporal-mvp / no-frame-dup / hme / Level / merange / L0,L1,L2=16,32,48 / weightp / weightb / no-analyze-src-pics / deblock=-3:-3 / no-sao / no-sao-non-deblock / rd=4 / selective-sao=0 / no-early-skip / rskip / no-fast-intra / no-tskip-fast / no-cu-lossless / b-intra / no-splitrd-skip / rdpenalty=0 / psy-rd=2.00 / psy-rdoq=1.00 / no-rd-refine / no-lossless / cbqpoffs=0 / crqpoffs=0 / rc=crf / crf=20.0 / qcomp=0.65 / qpstep=4 / stats-write=0 / stats-read=0 / vbv-maxrate=160000 / vbv-bufsize=160000 / vbv-init=0.9 / min-vbv-fullness=50.0 / max-vbv-fullness=80.0 / crf-max=0.0 / crf-min=0.0 / ipratio=1.35 / pbratio=1.25 / aq-mode=2 / aq-strength=0.80 / no-cutree / zone-count=1 / zones: / start-frame=157847 / end-frame=165315 / qp=40 / no-strict-cbr / qg-size=32 / no-rc-grain / qpmax=69 / qpmin=0 / no-const-vbv / sar=1 / overscan=0 / videoformat=5 / range=0 / colorprim=1 / transfer=1 / colormatrix=1 / chromaloc=1 / chromaloc-top=2 / chromaloc-bottom=2 / display-window=0 / cll=0,0 / min-luma=0 / max-luma=1023 / log2-max-poc-lsb=8 / vui-timing-info / vui-hrd-info / slices=1 / no-opt-qp-pps / no-opt-ref-list-length-pps / no-multi-pass-opt-rps / scenecut-bias=0.05 / hist-threshold=0.03 / no-opt-cu-delta-qp / no-aq-motion / no-hdr10 / no-hdr10-opt / no-dhdr10-opt / no-idr-recovery-sei / analysis-reuse-level=0 / analysis-save-reuse-level=0 / analysis-load-reuse-level=0 / scale-factor=0 / refine-intra=0 / refine-inter=0 / refine-mv=1 / refine-ctu-distortion=0 / no-limit-sao / ctu-info=0 / no-lowpass-dct / refine-analysis-type=0 / copy-pic=1 / max-ausize-factor=1.0 / no-dynamic-refine / no-single-sei / no-hevc-aq / no-svt / no-field / qp-adaptation-range=1.00 / scenecut-aware-qp=0conformance-window-offsets / right=0 / bottom=0 / decoder-max-rate=0 / no-vbv-live-multi-pass* R" C% e# \: h& ?4 X
Default : Yes" ^$ ~& `/ R$ P/ G. r5 s
Forced : No( I9 m  w: u% r
Color range : Limited6 A7 t4 g' t2 d$ S
Color primaries : BT.709
( a; \8 \/ t  nTransfer characteristics : BT.709
1 |1 q* t/ {- r# nMatrix coefficients : BT.709& y: r& i9 m* F6 i* l+ L( w
% M! T2 K7 l9 p0 T! H
2 R1 V8 y1 i( T/ X
Audio
+ l0 J, S! V* O- u7 ^. H* h8 w) eID : 2
: V; S) }0 N- I7 Q% WFormat : E-AC-3 JOC3 x( l- c* f$ l( j+ e7 l
Format/Info : Enhanced AC-3 with Joint Object Coding
, U6 G. N1 g7 G& F- y3 `; RCommercial name : Dolby Digital Plus with Dolby Atmos! r3 q: J) m, ^1 ^1 B- x$ T
Codec ID : A_EAC3) I' u3 w% e& O, A
Duration : 1 h 54 min8 `3 h* R6 i9 ^; P" q" m6 [: [) Y
Bit rate mode : Constant5 J6 r, G- O+ _9 A4 b$ J
Bit rate : 768 kb/s
& l1 M  e; ^4 i% q2 eChannel(s) : 6 channels6 w. b8 N8 R7 c- }" x
Channel layout : L R C LFE Ls Rs
+ l5 p7 X% d* N- ?Sampling rate : 48.0 kHz9 `0 G' J, O8 V$ Q
Frame rate : 31.250 FPS (1536 SPF)
6 O  C/ ~1 [2 x7 Z* Q6 W2 j% C# qCompression mode : Lossy
0 }+ G6 [# a# {' {& r% Y( E% i0 ^Delay relative to video : 13 ms5 b' ~' @" i: f3 ]+ C7 ^
Stream size : 631 MiB (3%)
+ o- t2 k2 F: H4 `, h, D4 JLanguage : English4 ]: h8 R2 @* {7 h- a- {
Service kind : Complete Main: v+ b, {7 r9 \, V; H
Default : Yes; p* f: D4 m& g) p  _0 q
Forced : No
& p' C4 U7 i  t2 @+ \4 g  `Complexity index : 16! ~% N; D; |% e5 E% n# ?5 D
Number of dynamic objects : 15
3 q9 ]+ q( ^5 V+ i. fBed channel count : 1 channel
4 b1 u+ B9 e% f* e. b+ d+ sBed channel configuration : LFE

& G/ F: l( X( T& W
+ g' S* }: B" j  O, F蓝光高清网提示您  点击下方附件名称  马上开始下载" G& ]9 ]/ x+ d) d) }# a9 o9 `0 c; f
# n: l" J+ a3 S) c( H5 B/ E
: I2 Z# o5 W: W# c) t: ?8 t
Bloody Milkshake/火药奶昔4k Gunpowder.Milkshake.2021.2160p.NF.WEBRip.DDP5.1.Atmos.x265-4k电影下载4 M! b: x" c, d0 r

% B+ F+ c8 [0 Q: ~" |7 h" B& H火药奶昔4k Gunpowder.Milkshake.2021.2160p.NF.WEBRip.DDP5.1.Atmos.x265【20.41GB】
+ Z+ L* t& [. O 火药奶昔4k Gunpowder.Milkshake.2021.2160p.NF.WEBRip.DDP5.1.Atmos.x265-KiNGS.torrent (文件大小:26.17 KB)
加入蓝光高清网VIP会员  无限制下载本站所有资源---点这里

资源下载、资源播放、字幕使用、无法下载等常见问题---点这里
回复

使用道具 举报

您需要登录后才可以回帖 登录 | 立即注册

本版积分规则

烧友之家(蓝光高清网)本站内容部分由用户自主分享和转载自互联网,转载目的在于传递更多信息,并不代表本网赞同其观点和对其真实性负责。 如有侵权、违反国家法律政策行为,请联系我们,我们会第一时间及时清除和处理!
蓝光高清网 综合资讯平台
关注我们
  • 官方微信公众号
  • 扫码下载官方APP

X3.4 Licensed© 2001-2013 蓝光高清网 烧友之家APP |网站地图