游客您好
第三方账号登陆
  • 点击联系客服

    在线时间:9:00-18:00

    客服QQ

    1371333023

    电子邮件

    lanniao@1080pro.net
  • 烧友之家APP

    随时掌握烧友资讯

  • 扫描二维码

    关注微信公众号

推荐阅读
蓝鸟
未知星球 | 未知职业
  • 关注0
  • 粉丝2
  • 帖子94272
精选帖子
开启左侧

人类清除计划5 4kThe.Forever.Purge.2021.2160p.WEB-DL.x265.10bit.HDR.DD5.1-4k电影下载—17.00 GB

[复制链接]
蓝鸟 发表于 2021-7-17 21:14:16 | 显示全部楼层 |阅读模式 打印 上一主题 下一主题
人类清除计划5
上映时间:2021年
类型:惊悚 科幻 犯罪 
地区:美国 
导演:埃弗拉多·瓦莱里奥·古特
主演:安娜·德拉·雷古拉 / 特诺切·韦尔塔 / 乔什·卢卡斯 / 卡西迪·弗里曼 / 莱文·兰宾
画质标准:4K HDR  封装音轨:Dolby TrueHD 5.1 Dolby Atmos 
豆瓣评分:6.8分

加入蓝光高清网,轻松下载最新4k资源

您需要 登录 才可以下载或查看,没有帐号?立即注册

x
简       介
, C8 n& u! o# S0 O* O# G2 x, y. \) W
& H* ?  \5 N1 |! K7 A5 t' N" L
  故事紧接《人类清除计划3》。从贩毒集团手中脱逃的阿德拉与丈夫胡安自墨西哥来到美国得克萨斯州生活,后者在塔克家族的牧场工作。胡安深受塔克一家的族长,凯莱布的赏识,但这也让凯莱布之子迪伦心生妒忌。但在一年一度的“人类清除计划”过后的早上,一支地下组织意图将杀戮继续进行下去,让全美陷入狂乱之中。包括迪伦妻子和妹妹在内的塔克一家也遭受波及,迫使众人联合起来对付暴徒,并设法逃入开放边境仅有六小时的墨西哥。  g+ N' |' R, v- w- u
7 W8 Y, a% @. X1 m$ X

/ k! z4 d/ n6 F1 z影片参数
: `. S( }: C" _7 \8 c9 m* j
国定杀戮日:无限狂屠(港) / 人类清除计划完结篇 / 人类清除计划:自由永恒/人类清除计划5 4kThe.Forever.Purge.2021.2160p.WEB-DL.x265.10bit.HDR.DD5.1-4k电影信息7 Q/ o" V: ^8 n1 `5 z
Video
( k; x3 z: B1 q3 ZID : 1! d  [: X  _& U  Z
Format : HEVC
* D0 y3 d  z' z  j3 K- oFormat/Info : High Efficiency Video Coding
: M$ p" N8 a( @+ t9 v7 ZFormat profile : Main 10@L5@High1 `. P. A9 P7 n, [9 y& s
HDR format : SMPTE ST 2086, HDR10 compatible
7 c7 H% q! m) {' d. E! _0 fCodec ID : V_MPEGH/ISO/HEVC
* {, c& ]. O. [/ G, d" w, z- uDuration : 1 h 43 min
) i/ K* p! L* ^Bit rate : 23.1 Mb/s
& A2 x7 Z* O# \1 h, Q: _Width : 3 840 pixels
& A& r+ n4 D! UHeight : 2 078 pixels
+ N0 ^2 [+ L9 q4 W, N5 ^% ?# \Display aspect ratio : 1.85:18 g% ]0 {" Y! [, n3 h
Frame rate mode : Constant, e1 S+ }5 {. u3 H) u
Frame rate : 23.976 FPS1 `* O) \: O) q9 v+ y
Color space : YUV7 S6 U" b& p8 D$ x6 V
Chroma subsampling : 4:2:0 (Type 2)
' C# Y$ r! W: [1 V- |4 ABit depth : 10 bits
% V( P, [" z, [9 r/ u, x1 QBits/(Pixel*Frame) : 0.121
+ ?  ?* t& B, _( e! |+ S8 j! aStream size : 16.7 GiB (98%): b" @! `4 u& H
Default : Yes
) b! f$ Z' ?" E, W0 x* m) pForced : No+ K7 r9 t1 V1 e0 Y- x/ H
Color range : Limited3 {2 I' p: N) ]& k0 Y
Color primaries : BT.2020
- A& N$ G+ }5 g* F- E. w" YTransfer characteristics : PQ
3 J: I) h, f3 DMatrix coefficients : BT.2020 non-constant* C9 a1 B$ N5 e4 R7 B3 x, |' \
Mastering display color primaries : Display P3$ k( _1 S7 r7 ~  P
Mastering display luminance : min: 0.0050 cd/m2, max: 1000 cd/m2
& L: h+ h3 `" S$ e8 y4 _5 tMaximum Content Light Level : 1049 cd/m2
% }- i: k) I, ^/ n; {+ b8 \Maximum Frame-Average Light Level : 500 cd/m2
6 b/ `0 [7 B* }- ^7 b9 G8 t& W  J9 J6 q+ m

( k0 K; `- k  X4 v, s, h+ x9 q& S5 WAudio% G) d- i- h/ e* h
ID : 2; f. R' N3 }" u
Format : AC-3" T4 u5 \6 k6 O& y1 l; q' `  O
Format/Info : Audio Coding 3
9 O- L. c4 @! x; C7 {+ WCommercial name : Dolby Digital
! f8 f2 Y4 f; ZCodec ID : A_AC3) D+ ?" U0 @5 }/ D( J' A/ ]7 j
Duration : 1 h 43 min
7 z3 M' ~2 s9 W6 d: ^' lBit rate mode : Constant- |7 C. v' J) q+ |3 B0 M2 v8 J: {
Bit rate : 384 kb/s5 z# h9 ^0 ~9 r; e4 q
Channel(s) : 6 channels/ i6 M4 {8 R% u" ~, k1 q
Channel layout : L R C LFE Ls Rs
; n5 C$ E! f2 I6 L% E2 WSampling rate : 48.0 kHz0 _3 H$ }: T2 S% s7 m- O4 y
Frame rate : 31.250 FPS (1536 SPF)2 {/ R7 e. |, R# o
Compression mode : Lossy
# f  u3 S- _7 _" }+ S0 L# HStream size : 284 MiB (2%)
( ~7 |, q, s+ T. J2 zTitle : English
  ^( z# n  n. |1 X% J  {Language : English
2 \- K; M: [2 s9 d- }4 TService kind : Complete Main( S+ m! q4 O. @+ L8 ?
Default : Yes* A7 d6 c* x# T4 O1 i' f1 J0 J
Forced : No
' r9 J% L7 M4 `8 y; b
4 q  p  ?- J/ w/ M
' y9 y: Y! r' n! a$ ^& b
Text #1+ f3 m2 X$ H" j/ D! b* N- \7 z
ID : 3% d) l( c' _/ E; F. j: K* T
Format : UTF-8
" R- q# k/ I! q$ j) hCodec ID : S_TEXT/UTF8
5 s3 w+ u+ }% k% J5 H7 n; T5 E- f3 tCodec ID/Info : UTF-8 Plain Text9 T. ]- I$ m4 {* h4 ^
Duration : 1 h 30 min0 O0 v" p/ {: v+ Y! S9 p: U
Bit rate : 2 b/s
" a4 Q7 j* }. S; W1 J  _Count of elements : 78
- F2 a/ E  r8 D7 mStream size : 1.78 KiB (0%)0 v4 k, ?2 [  i2 G% `! d
Title : English [Forced]
  R, N: i, m# F/ h4 J2 S7 jLanguage : English
$ ~$ v9 n5 u$ B% y* c/ Q0 b  @& pDefault : No
/ p- g" ]! x5 k- d& L4 zForced : Yes; K  [% [. [) n! O
. Y2 c$ p6 e, ~. G' {
6 `' r6 n% U" o! B  |5 J! j
Text #2, i" h: C. F+ K' e* H1 D8 H
ID : 4; P6 @1 }: U$ _' L
Format : UTF-8
6 l6 A! g) b0 E% Z  ^+ ZCodec ID : S_TEXT/UTF8
1 k, u) m3 n! ]) f  QCodec ID/Info : UTF-8 Plain Text
0 h+ W0 E  Y+ c. `: JDuration : 1 h 43 min
* A3 _/ I! m( C: s! i; k6 P8 TBit rate : 64 b/s& o# R6 g* x  C: G7 ^6 l
Count of elements : 1770
1 D/ A0 \. ]2 F' w( h/ aStream size : 48.7 KiB (0%)
9 _, h( s6 ^. R: pTitle : English [Full]# X1 k4 \  @# ]6 ]8 v: n& D5 X
Language : English, z1 n" I8 T# e/ n( r
Default : No( G# \/ q: s8 N  e8 ~, v/ ]( C* g
Forced : No
9 Z1 h' ~& \. n& Y" Z, N; P, f' N9 A' p, |  N; q- Q
+ @/ Z5 l5 I' M0 [0 h- q
Menu( |& Y, i# X5 h6 \8 e
00:00:00.000 : Scene 1
) w- W# y9 j+ b( @! s% j00:04:59.966 : Scene 2) V) f+ E0 t7 V: H! e
00:11:22.766 : Scene 39 I6 C7 F1 T; M( k$ H4 I) u
00:18:09.464 : Scene 4. R  A# o! X2 _: k% a! n
00:23:43.173 : Scene 5* T% m+ w9 k# L8 X! A" ?: i7 J
00:29:00.407 : Scene 6
  h) F! a5 g% h/ c( z00:36:27.604 : Scene 7
, l  P; x+ W+ l# w' o; ]: _00:42:38.183 : Scene 8
2 }! D7 J/ F; v4 T7 a4 N% f00:45:31.147 : Scene 9
: I; l# e' i8 B3 A* ]- J00:52:23.852 : Scene 10
" {1 ^1 M4 \8 b8 s$ ^01:00:30.588 : Scene 11* l4 b% g  D/ ]  b1 H
01:05:46.321 : Scene 12
8 u$ E/ P! M% a5 B3 K( k+ y$ C" b01:12:46.783 : Scene 13
9 C7 [3 [/ D7 y5 }# f01:18:10.023 : Scene 14! V* X  ]% T% B8 I3 M
01:25:18.660 : Scene 153 L9 V' W. z7 p4 W! C
01:32:07.902 : Scene 16
9 X4 r  B  ]: n1 Y7 I

5 V  s% E3 X+ a) o& w) ^/ m* r蓝光高清网提示您  点击下方附件名称  马上开始下载" c8 H5 w. d; }" K8 g1 Z
4 x$ ^' e/ @. x; e  Y

' A  l# g* M# a! p国定杀戮日:无限狂屠(港) / 人类清除计划完结篇 / 人类清除计划:自由永恒/人类清除计划5 4kThe.Forever.Purge.2021.2160p.WEB-DL.x265.10bit.HDR.DD5.1-4k电影下载1 p% ?& v+ i( x7 B1 Y! ^
, n. C3 C( ~& U! ^$ a: {3 V
人类清除计划5 4kThe.Forever.Purge.2021.2160p.WEB-DL.x265.10bit.HDR.DD5.1【17.00GB】
- V6 b+ s( |4 m 人类清除计划5 4kThe.Forever.Purge.2021.2160p.WEB-DL.x265.10bit.HDR.DD5.1-.torrent (文件大小:21.91 KB)
加入蓝光高清网VIP会员  无限制下载本站所有资源---点这里

资源下载、资源播放、字幕使用、无法下载等常见问题---点这里
回复

使用道具 举报

精彩评论2

蓝光高清网好
回复 支持 反对

使用道具 举报

wilsonleung 发表于 7 天前 | 显示全部楼层
要钱吗?
回复

使用道具 举报

您需要登录后才可以回帖 登录 | 立即注册

本版积分规则

烧友之家(蓝光高清网)本站内容部分由用户自主分享和转载自互联网,转载目的在于传递更多信息,并不代表本网赞同其观点和对其真实性负责。 如有侵权、违反国家法律政策行为,请联系我们,我们会第一时间及时清除和处理!
蓝光高清网 综合资讯平台
关注我们
  • 官方微信公众号
  • 扫码下载官方APP

X3.4 Licensed© 2001-2013 蓝光高清网 烧友之家APP |网站地图