游客您好
第三方账号登陆
  • 点击联系客服

    在线时间:9:00-18:00

    客服QQ

    1371333023

    电子邮件

    lanniao@1080pro.net
  • 烧友之家APP

    随时掌握烧友资讯

  • 扫描二维码

    关注微信公众号

推荐阅读
蓝鸟
未知星球 | 未知职业
  • 关注0
  • 粉丝2
  • 帖子94272
精选帖子
开启左侧

粉色火烈鸟之惑 4k The.Mystery.of.the.Pink.Flamingo.2020.2160p.WEB-DL.x265.10bit.SDR.DD5.1-4k电影下载—12.68 GB

[复制链接]
蓝鸟 发表于 6 天前 | 显示全部楼层 |阅读模式 打印 上一主题 下一主题
粉色火烈鸟之惑
上映时间:2020年
类型:喜剧 记录 
地区:其他 
导演:哈维尔·波罗·甘迪亚
主演:John Waters / 爱德华多·卡萨诺瓦 Eduardo Casanova / 阿利·威利斯
画质标准:4K SDR  封装音轨:DTS-HD.MA 5.1 
豆瓣评分:6.2分

加入蓝光高清网,轻松下载最新4k资源

您需要 登录 才可以下载或查看,没有帐号?立即注册

x
简       介2 t9 B4 I$ l) |( V" h
/ W+ w6 `0 r; Z# S2 o* M' u9 z" [
+ K& V$ H  J- f1 A: C: S' p/ e/ E! C, ~
  音效师里戈的生活突然被一个奇怪的声音扰乱,而声音来自于一群粉红色的火烈鸟。里戈由此开始调查粉色火烈鸟这一对他而言十分古怪且引发困扰的形象,试图解释它们背后神秘的含义。他只身从西班牙出发,与世界各地的文化人士会面,共同探讨粉色火烈鸟为何受到全球广泛的欢迎,这趟奇异的旅程也成为粉色火烈鸟这一符号对当今流行文化的解读与自我剖析的联结。
) }) x  S; k. d* `! o8 V  ^4 [) W& T6 m$ C& Y2 s$ k6 ]

- ?2 c9 g2 H: m* T1 h& S影片参数
5 v5 x, m( |( w9 ]- J7 x
El misterio del Pink Flamingo/粉色火烈鸟之惑4k The.Mystery.of.the.Pink.Flamingo.2020.2160p.WEB-DL.x265.10bit.SDR.DD5.1-4k电影信息
% V8 ?1 D2 L' W8 B+ U3 vVideo
& |! o' u( `- }2 C( ?7 }ID : 1- h3 p5 U1 `; T3 w
Format : HEVC
/ f1 \' X- w# C5 jFormat/Info : High Efficiency Video Coding: C! ^1 b. a0 B) z( X4 l7 D+ L
Format profile : Main 10@L5@High
, C8 w: `7 j- w! U' d3 y& ACodec ID : V_MPEGH/ISO/HEVC4 i) U7 E# }# a- i" N) |3 P% R2 o
Duration : 1 h 26 min
3 p& L) q  o; Z1 [9 F5 JBit rate : 20.6 Mb/s
* A& T( C. w; L9 e; W) cWidth : 3 840 pixels
2 A( R7 N! Z4 d8 @" qHeight : 2 160 pixels: Q) v9 T7 l& v* S
Display aspect ratio : 16:9: w. ]+ }) n0 o2 [7 K
Frame rate mode : Constant' U& l& J6 z% @0 W
Frame rate : 25.000 FPS: v+ y/ @! D$ s4 c: W
Color space : YUV. T. S6 @0 {+ n, v
Chroma subsampling : 4:2:0
6 l& l6 ~! ^8 S. o' }" @- _Bit depth : 10 bits$ J& |' u( P$ W7 z
Bits/(Pixel*Frame) : 0.099
2 G/ E5 d: Q: O- nStream size : 12.4 GiB (98%)
( n+ {! F+ c2 e% W% C/ rLanguage : English* i" `# @! [. |; b$ F) m6 @# W
Default : Yes- L) `; M6 ~  x% M6 S
Forced : No
& a4 o) [0 e' C3 N+ iColor range : Limited. o8 B3 S( p0 ]2 |. X; a
Color primaries : BT.709
3 |. w& H5 ]5 Q& _Transfer characteristics : BT.709
9 Z3 f$ Q7 o6 @Matrix coefficients : BT.709
& a, p8 s6 V6 c* x4 c- {: R
" K9 ]8 B+ e$ Z5 U8 s! d

! a  G9 ~3 I) h! S! kAudio
5 F! K+ F7 D  cID : 2( I3 H, w0 i3 G+ x
Format : AC-3! V' |2 S' k& Q. R2 c
Format/Info : Audio Coding 3
+ ]$ ~  ^7 X2 `. TCommercial name : Dolby Digital% m( i2 t/ W9 c0 Q% g* ~4 h, r
Codec ID : A_AC37 q. b8 E, ~; t) B) I: w
Duration : 1 h 26 min8 b+ z  j( x6 c, d3 Z. p$ A
Bit rate mode : Constant" @5 i9 G* K; U2 i
Bit rate : 384 kb/s7 M# s/ O$ q' A( {; m; O9 p9 }
Channel(s) : 6 channels2 g# V$ ?" q: ~/ c) M
Channel layout : L R C LFE Ls Rs
5 O3 J* h! A( nSampling rate : 48.0 kHz
# C4 y" ?2 m+ a5 l; VFrame rate : 31.250 FPS (1536 SPF)8 g' z3 G4 ^6 W
Compression mode : Lossy
$ f  w0 j5 O, k/ s3 H' A7 ]8 MStream size : 238 MiB (2%)
2 {- i) r- g9 q' u/ r% WLanguage : English& t4 A; L' p. k; [1 i+ v! F& Q' N
Service kind : Complete Main4 x: r8 ~9 i( c+ K7 B# r) Q6 b. [
Default : Yes
) G2 y! i+ `: X( T5 w/ w( B) pForced : No

) L+ q* s9 Z  K* O/ g7 g- V+ i5 P- D, C- w. Q' E
蓝光高清网提示您  点击下方附件名称  马上开始下载5 l  c, B! A1 G7 c: d
- q6 l0 R, @% S" ]/ F
6 S5 `8 Z1 l0 D, G0 _
El misterio del Pink Flamingo/粉色火烈鸟之惑4k The.Mystery.of.the.Pink.Flamingo.2020.2160p.WEB-DL.x265.10bit.SDR.DD5.1-4k电影下载6 @; \8 l1 p8 @5 p! U. o

/ A$ j5 i# y: x& j2 k粉色火烈鸟之惑4k The.Mystery.of.the.Pink.Flamingo.2020.2160p.WEB-DL.x265.10bit.SDR.DD5.1【12.68 GB】
5 q3 {+ l/ ]# n, _. T% h% u! Q 粉色火烈鸟之惑4k The.Mystery.of.the.Pink.Flamingo.2020.2160p.WEB-DL.x265..torrent (文件大小:16.53 KB)
加入蓝光高清网VIP会员  无限制下载本站所有资源---点这里

资源下载、资源播放、字幕使用、无法下载等常见问题---点这里
回复

使用道具 举报

您需要登录后才可以回帖 登录 | 立即注册

本版积分规则

烧友之家(蓝光高清网)本站内容部分由用户自主分享和转载自互联网,转载目的在于传递更多信息,并不代表本网赞同其观点和对其真实性负责。 如有侵权、违反国家法律政策行为,请联系我们,我们会第一时间及时清除和处理!
蓝光高清网 综合资讯平台
关注我们
  • 官方微信公众号
  • 扫码下载官方APP

X3.4 Licensed© 2001-2013 蓝光高清网 烧友之家APP |网站地图