游客您好
第三方账号登陆
  • 点击联系客服

    在线时间:9:00-18:00

    客服QQ

    1371333023

    电子邮件

    lanniao@1080pro.net
  • 烧友之家APP

    随时掌握烧友资讯

  • 扫描二维码

    关注微信公众号

推荐阅读
蓝鸟
未知星球 | 未知职业
  • 关注0
  • 粉丝2
  • 帖子94272
精选帖子
开启左侧

封锁 4k Locked.Down.2021.2160p.WEB-DL.x265.10bit.HDR.DDP5.1.Atmos-4k电影下载—12.47 GB

[复制链接]
蓝鸟 发表于 6 天前 | 显示全部楼层 |阅读模式 打印 上一主题 下一主题
封锁
上映时间:2021年
类型:喜剧 爱情 犯罪 
地区:美国 
导演:道格·里曼
主演:安妮·海瑟薇 / 切瓦特·埃加福 / 斯戴芬·莫昌特 / 敏迪·卡灵 / 本·金斯利
画质标准:4K HDR  封装音轨:Dolby TrueHD 5.1 Dolby Atmos 
豆瓣评分:5.3分

加入蓝光高清网,轻松下载最新4k资源

您需要 登录 才可以下载或查看,没有帐号?立即注册

x
简       介
- }. s4 t. w1 e6 Y& i
( |6 q! t+ \: ]" O- \) O
$ _" g$ h5 j6 ^
  设定在新冠疫情封城期间,讲述一对日常争吵不断的夫妻琳达和帕克斯顿休战,计划去完成一场高风险的抢劫——在世界上最高档的百货公司之一哈罗德搜刮珠宝。
# v& c& W- i$ E5 F3 H% V
4 J6 L3 K5 B" m/ t7 [+ o: Z( U0 z
# T+ [3 y9 \4 [0 l! q3 O
影片参数4 B, t5 c( ], L! g
封锁隔离/封锁4k Locked.Down.2021.2160p.WEB-DL.x265.10bit.HDR.DDP5.1.Atmos-4k电影信息' ~# ]! i! V; Z0 p
Video
. t' h4 G) a. {. X% g0 IID : 18 Q8 @( _. F+ z. Q( j2 ^. Q
Format : HEVC6 I5 F. Z4 s6 a" W9 K7 \
Format/Info : High Efficiency Video Coding% Y& `& u$ }" i) V9 E- k: _
Format profile : Main 10@L5@High: s/ Y+ E9 w7 Y3 l! k) p) ~
HDR format : SMPTE ST 2086, HDR10 compatible
- Y  {6 z" a3 _* p9 mCodec ID : V_MPEGH/ISO/HEVC/ k% Z# ^0 o+ M7 w( ~  Z
Duration : 1 h 57 min1 ~8 r$ N4 I3 T: o5 O3 |" O! b8 T
Bit rate : 14.4 Mb/s
0 P' n7 n- [6 w: b6 l# ~3 H( w3 RWidth : 3 840 pixels0 L0 u' O7 r4 _
Height : 2 068 pixels" {# b% q2 B2 w
Display aspect ratio : 1.85:1
0 h4 j; o& f) Y0 `& _! \  VFrame rate mode : Constant
( a( x5 N. h: [$ x" `' b9 \+ E, OFrame rate : 23.976 (24000/1001) FPS3 U4 q4 I1 [+ _/ ]8 n
Color space : YUV
0 v' L  p  Q+ @; E$ S& zChroma subsampling : 4:2:0 (Type 2)
3 Z8 g5 ~# x, r% l5 ^  R* e) d* dBit depth : 10 bits( t$ n+ v% p& i' Q: N3 I5 V3 t- g! V
Bits/(Pixel*Frame) : 0.075# Y" G- d# W  S, T# a0 P
Stream size : 11.8 GiB (95%)
' h$ t9 z, S" K( TLanguage : English
7 Z9 S5 i0 s& I: J% iDefault : Yes2 W+ p1 Q/ k- W/ x8 w+ K6 h
Forced : No
1 i' \9 t4 a. T1 V2 o( s4 g2 mColor range : Limited
+ a: s% k, y& l* m$ Q" _& uColor primaries : BT.2020, ?% x! n# V5 E0 D8 ~+ M2 p
Transfer characteristics : PQ
4 K& A7 \' N4 v4 JMatrix coefficients : BT.2020 non-constant
7 N% d. ~: m5 ]! Y. yMastering display color primaries : BT.2020
# D( U; A+ @9 P; o2 l2 q) j+ [Mastering display luminance : min: 0.0050 cd/m2, max: 1000 cd/m2
' g% |# `& ^: {( E! m* u3 d: QMaximum Content Light Level : 1370 cd/m2
9 r* w- z3 r. D7 I) UMaximum Frame-Average Light Level : 142 cd/m2
  V6 n6 P3 z3 e6 m% u) S$ W
; F/ \( [" U  V9 a; c3 p- e( M9 }: U
% U) m. q$ W4 I! C6 ~# W
Audio
& Z* |' H0 Q3 j; ]" `ID : 20 ~3 f0 G; s- D0 F1 A# q/ O: B) W
Format : E-AC-3 JOC9 n4 Q2 {2 H7 Q& N) S, Z4 D
Format/Info : Enhanced AC-3 with Joint Object Coding5 N7 ~4 X/ F/ {7 b6 G3 ^* x
Commercial name : Dolby Digital Plus with Dolby Atmos" B# _+ ?' V! d. N( c. F" ^
Codec ID : A_EAC38 O8 `* N4 z7 W, n( ~1 U% j* o* \
Duration : 1 h 57 min% o, G/ L( U$ L  ?9 [* [. n) K
Bit rate mode : Constant
2 p2 Q: K0 W0 m& K5 r( wBit rate : 768 kb/s
9 X! T" z0 Q4 p; UChannel(s) : 6 channels
* y4 v4 D8 s( `) UChannel layout : L R C LFE Ls Rs
8 {6 D3 c, `, m- mSampling rate : 48.0 kHz* j: X; _) H, q4 b: X
Frame rate : 31.250 FPS (1536 SPF)
* r: x7 A3 e, S' ]' J$ RCompression mode : Lossy
# n& H3 j( b( q  w; hStream size : 648 MiB (5%)6 u9 n6 C% Y0 c, z: A1 H
Language : English- s& t9 g% l& c5 l$ C# J2 U
Service kind : Complete Main, B9 d2 n1 ^: A( h
Default : Yes+ _2 ?/ |' Z0 \( ]
Forced : No9 v* }3 ^' V( `3 \: K( F. g5 r
Complexity index : 16
! M% T! S6 `6 |$ J. [Number of dynamic objects : 15
+ r! L. f" }, R, S% C( x) p" @Bed channel count : 1 channel
( I; C  j. s! R" M9 b8 tBed channel configuration : LFE

% j, a$ D& ~1 l7 H4 E
7 c! \4 T: w3 O0 `5 Z% }蓝光高清网提示您  点击下方附件名称  马上开始下载1 z2 Q& I" U; V8 o/ l" b

' z7 l& `" X( r. s. g) i5 ^! Y
# U( O# \, |/ W  R# }) v) {# S
封锁隔离/封锁4k Locked.Down.2021.2160p.WEB-DL.x265.10bit.HDR.DDP5.1.Atmos-4k电影下载
( `  p' f) q$ `9 l& \2 ^
* `% l' o* Z  l封锁4k Locked.Down.2021.2160p.WEB-DL.x265.10bit.HDR.DDP5.1.Atmos【12.47 GB】
- w" w+ z& `6 l- _! ?1 E7 A 封锁4k Locked.Down.2021.2160p.WEB-DL.x265.10bit.HDR.DDP5.1.Atmos-ROCCaT.torrent (文件大小:16.24 KB)
加入蓝光高清网VIP会员  无限制下载本站所有资源---点这里

资源下载、资源播放、字幕使用、无法下载等常见问题---点这里
回复

使用道具 举报

您需要登录后才可以回帖 登录 | 立即注册

本版积分规则

烧友之家(蓝光高清网)本站内容部分由用户自主分享和转载自互联网,转载目的在于传递更多信息,并不代表本网赞同其观点和对其真实性负责。 如有侵权、违反国家法律政策行为,请联系我们,我们会第一时间及时清除和处理!
蓝光高清网 综合资讯平台
关注我们
  • 官方微信公众号
  • 扫码下载官方APP

X3.4 Licensed© 2001-2013 蓝光高清网 烧友之家APP |网站地图