游客您好
第三方账号登陆
  • 点击联系客服

    在线时间:9:00-18:00

    客服QQ

    1371333023

    电子邮件

    lanniao@1080pro.net
  • 烧友之家APP

    随时掌握烧友资讯

  • 扫描二维码

    关注微信公众号

推荐阅读
蓝鸟
未知星球 | 未知职业
  • 关注0
  • 粉丝2
  • 帖子94272
精选帖子
开启左侧

未怀孕 4k Unpregnant.2020.2160p.WEB-DL.x265.10bit.HDR.DD5.1-4k电影下载—10.54 GB

[复制链接]
蓝鸟 发表于 6 天前 | 显示全部楼层 |阅读模式 打印 上一主题 下一主题
未怀孕
上映时间:2020年
类型:喜剧 剧情 
地区:美国 
导演:蕾琪儿·戈登堡
主演:海莉·露·理查森 / 芭比·费雷拉 / 吉安卡罗·埃斯波西托 / 亚历克斯·马克尼科尔 / 布瑞金·梅耶
画质标准:4K HDR  封装音轨:Dolby TrueHD 5.1 Dolby Atmos 
豆瓣评分:6.8分

加入蓝光高清网,轻松下载最新4k资源

您需要 登录 才可以下载或查看,没有帐号?立即注册

x
简       介
: H( N1 p- U. G9 z, R. V
; e$ ]" W& f0 K# M

$ p. v. i2 R' M0 k  女孩Veronica(理查森)发现自己怀孕了,她只能和有车的“前”好友Bailey(Ferreira)一起上路,寻求合法堕胎:Veronica的男友很窝囊,她自己也不想这么年轻就当妈妈,不然会影响她的常春藤大学梦。而她所在的美国密苏里州规定未成年人必须有父母同意才能堕胎,她的父母并不同意。Veronica决定旅行900英里,去新墨西哥州堕胎后回家。
6 r( Y  e' t% ]* Z6 w  Veronica是个沉迷于ins、成绩优秀、雄心勃勃的好学生,而Bailey是个孤独、毒舌的酷儿,对Veronica的新朋友们忍耐度为零。这样两个人怀着这样的目标一起上路,途中行差踏错,既有动情之处,又有幽默。
, ~, g6 {- G0 i4 I( h+ R

0 \  Y& A# R# s2 e4 I. }
2 X3 e4 r' i$ X; S2 T" C" X" E( I
影片参数
& }! q6 {! z0 A3 Z  n9 x
堕胎/未怀孕4k Unpregnant.2020.2160p.WEB-DL.x265.10bit.HDR.DD5.1-4k电影信息0 K  p9 N' w' e
Video
2 Z  T8 R- r  r; i; K) XID : 1
9 J0 D# Q, G0 P) ZFormat : HEVC/ ]  f9 t6 H/ ?
Format/Info : High Efficiency Video Coding. X: G6 T. f9 [& e1 A
Format profile : Main 10@L5@High
1 J' K* P4 g2 z! m' t1 VHDR format : SMPTE ST 2086, HDR10 compatible; Y2 X. W8 ^' }  S8 n, |
Codec ID : V_MPEGH/ISO/HEVC) [2 y0 n4 \) k; J% N) D7 ]3 L* ^' \
Duration : 1 h 43 min. v4 C2 H  a6 B' g6 S8 F4 M
Bit rate : 14.2 Mb/s
4 v5 T8 a- S2 V7 ?  aWidth : 3 840 pixels
& w4 v. h0 E# ]' i- ?5 uHeight : 1 608 pixels
7 w! E+ `& h5 w8 m( IDisplay aspect ratio : 2.40:1
0 ~1 F' J0 E- C2 t$ d2 M0 f9 KFrame rate mode : Constant) \, j# f; T/ _) v2 D' L
Frame rate : 23.976 (24000/1001) FPS
) ^: Z; o. E5 ^6 S6 u$ L) ?Color space : YUV
: N4 }/ N- o9 `1 \- UChroma subsampling : 4:2:0 (Type 2)
  L1 ?* s( N6 {/ O% s9 T+ @Bit depth : 10 bits/ {$ u: C$ `. f7 T" ]1 n
Bits/(Pixel*Frame) : 0.096: {* g) M2 {" G  k( W9 ~! z
Stream size : 10.3 GiB (97%)1 G! ^4 Q) ^. M1 l# R
Language : English0 ]. T4 K! ^# E. y: d# A
Default : Yes
$ W2 K) {: I) M9 |, {. DForced : No# }' Z9 k' @- x7 ?
Color range : Limited- o6 n/ b+ w) A% F& z
Color primaries : BT.2020/ j6 w) ^" H4 c& n
Transfer characteristics : PQ
) j, v" F* s- U9 @$ S$ B1 ]9 C& TMatrix coefficients : BT.2020 non-constant1 x: Z) M+ B( T; A
Mastering display color primaries : BT.2020
1 X; R4 D9 B9 w& [0 ^) HMastering display luminance : min: 0.0050 cd/m2, max: 1000 cd/m2
% H3 q5 T8 P! A* D1 K8 v- CMaximum Content Light Level : 978 cd/m2
; m+ Z. }! R: S. M. k9 OMaximum Frame-Average Light Level : 155 cd/m2# Z: u  u* V; ?9 b1 P
9 i" P' k  z! I$ |$ @
- n# ^4 R. T7 `% R% Y
Audio6 a* y9 {% m1 Z* [- r( a
ID : 2
* W8 ]! V: V. f0 PFormat : AC-3
* k% J" K. s. x! L! `. FFormat/Info : Audio Coding 3
" u. _2 ?& Z9 p9 x& NCommercial name : Dolby Digital6 x, w5 `0 k: E3 B% R- O2 w
Codec ID : A_AC3
0 g; G0 x+ K) i) c/ K7 i$ pDuration : 1 h 43 min* `1 j9 j' M' u& A; c6 o" {
Bit rate mode : Constant# B% F9 _  F, ?6 X) ?
Bit rate : 384 kb/s" G" e) \, V7 U
Channel(s) : 6 channels
5 ?7 ^# f# u* U, x! ?# p  I% jChannel layout : L R C LFE Ls Rs8 b' W+ Y% b! i* [( Q- }$ e/ l
Sampling rate : 48.0 kHz
- y+ B8 W8 A4 Z3 o: f3 i" ?( q3 s. fFrame rate : 31.250 FPS (1536 SPF)
1 E, t+ t/ w/ v! Q# N/ ~1 ECompression mode : Lossy
+ Y* o7 Z' O5 a0 O' J3 y) e9 c$ E- O8 qStream size : 285 MiB (3%)
' x. @. ~* ?" _: }Language : English
* {% _; Z; l/ }Service kind : Complete Main
/ Y) }) I( }5 h6 J# _3 H8 ODefault : Yes# q- E$ _0 q& ]% L; a8 ^6 F+ K' B
Forced : No

8 W2 q. }3 c- j1 `
: ?$ q% D  t& {2 R3 y4 N蓝光高清网提示您  点击下方附件名称  马上开始下载
9 V" ?% L& V. G2 n* u1 F9 K' y% n4 x$ _0 C2 t% }' m' e
% i% J7 ]# d4 {0 N
堕胎/未怀孕4k Unpregnant.2020.2160p.WEB-DL.x265.10bit.HDR.DD5.1-4k电影下载
  g( |6 t4 w0 f
! b+ ^0 r- U  H' A9 K; s) Z* i未怀孕4k Unpregnant.2020.2160p.WEB-DL.x265.10bit.HDR.DD5.1【10.54 GB】
) i6 B, h' e! u' S 未怀孕4k Unpregnant.2020.2160p.WEB-DL.x265.10bit.HDR.DD5.1-ROCCaT 1.torrent (文件大小:13.81 KB)
加入蓝光高清网VIP会员  无限制下载本站所有资源---点这里

资源下载、资源播放、字幕使用、无法下载等常见问题---点这里
回复

使用道具 举报

您需要登录后才可以回帖 登录 | 立即注册

本版积分规则

烧友之家(蓝光高清网)本站内容部分由用户自主分享和转载自互联网,转载目的在于传递更多信息,并不代表本网赞同其观点和对其真实性负责。 如有侵权、违反国家法律政策行为,请联系我们,我们会第一时间及时清除和处理!
蓝光高清网 综合资讯平台
关注我们
  • 官方微信公众号
  • 扫码下载官方APP

X3.4 Licensed© 2001-2013 蓝光高清网 烧友之家APP |网站地图