游客您好
第三方账号登陆
  • 点击联系客服

    在线时间:9:00-18:00

    客服QQ

    1371333023

    电子邮件

    lanniao@1080pro.net
  • 烧友之家APP

    随时掌握烧友资讯

  • 扫描二维码

    关注微信公众号

推荐阅读
蓝鸟
未知星球 | 未知职业
  • 关注0
  • 粉丝2
  • 帖子94272
精选帖子
开启左侧

[其他电视剧] 德黑兰 第一季4K Tehran.S01.HEBREW.2160p.ATVP.WEB-DL.DDP5.1.Atmos.DV.MP4.x265-4k杜比视界版本美剧下载—69.79 GB

[复制链接]
蓝鸟 发表于 6 天前 | 显示全部楼层 |阅读模式 打印 上一主题 下一主题
德黑兰

状态:第一季(完结)
上映时间:2020-09-25
类型:剧情 惊悚 
地区:其他
导演:Daniel Syrkin
主演:妮芙·苏丹 / 肖恩·托布 / 梅纳什·诺伊 / Shervin Alenabi / 纳维德·内加班
画质标准:4K(3840x2160) 封装音轨:MKV 音轨编码:其他DD
豆瓣评分:7.6分

加入蓝光高清网,轻松下载最新4k资源

您需要 登录 才可以下载或查看,没有帐号?立即注册

x
影片参数
德黑兰行动/德黑兰 第一季4K Tehran.S01.HEBREW.2160p.ATVP.WEB-DL.DDP5.1.Atmos.DV.MP4.x265-4k杜比视界版本美剧信息
Video
ID : 1
Format : HEVC
Format/Info : High Efficiency Video Coding
Format profile : Main 10@L5@High
HDR format : Dolby Vision, Version 1.0, dvhe.05.06, BL+RPU
Codec ID : dvhe
Codec ID/Info : High Efficiency Video Coding with Dolby Vision
Duration : 50 min 14 s
Bit rate : 24.5 Mb/s
Width : 3 840 pixels
Original width : 3 838 pixels
Height : 1 608 pixels
Original height : 1 606 pixels
Display aspect ratio : 2.40:1
Original display aspect ratio : 2.40:1
Frame rate mode : Constant
Frame rate : 23.976 (24000/1001) FPS
Color space : YUV
Chroma subsampling : 4:2:0
Bit depth : 10 bits
Bits/(Pixel*Frame) : 0.165
Stream size : 8.60 GiB (94%)
Default : Yes
Alternate group : 1
Encoded date : UTC 2021-06-29 06:45:28
Tagged date : UTC 2021-06-29 06:46:07
Codec configuration box : hvcC+dvcC


Audio #1
ID : 2
Format : E-AC-3 JOC
Format/Info : Enhanced AC-3 with Joint Object Coding
Commercial name : Dolby Digital Plus with Dolby Atmos
Codec ID : ec-3
Duration : 50 min 14 s
Bit rate mode : Constant
Bit rate : 768 kb/s
Maximum bit rate : 811 kb/s
Channel(s) : 6 channels
Channel layout : L R C LFE Ls Rs
Sampling rate : 48.0 kHz
Frame rate : 31.250 FPS (1536 SPF)
Compression mode : Lossy
Stream size : 276 MiB (3%)
Title : ×¢×�ר×�×a
Language : Hebrew
Service kind : Complete Main
Encoded date : UTC 2021-06-29 06:45:01
Tagged date : UTC 2021-06-29 06:46:07
Complexity index : Not present / 16
Number of dynamic objects : 15
Bed channel count : 1 channel
Bed channel configuration : LFE


Audio #2
ID : 3
Format : E-AC-3 JOC
Format/Info : Enhanced AC-3 with Joint Object Coding
Commercial name : Dolby Digital Plus with Dolby Atmos
Codec ID : ec-3
Duration : 50 min 14 s
Bit rate mode : Constant
Bit rate : 768 kb/s
Maximum bit rate : 811 kb/s
Channel(s) : 6 channels
Channel layout : L R C LFE Ls Rs
Sampling rate : 48.0 kHz
Frame rate : 31.250 FPS (1536 SPF)
Compression mode : Lossy
Stream size : 276 MiB (3%)
Title : English
Language : English
Service kind : Complete Main
Encoded date : UTC 2021-06-29 06:45:06
Tagged date : UTC 2021-06-29 06:46:07
Complexity index : Not present / 16
Number of dynamic objects : 15
Bed channel count : 1 channel
Bed channel configuration : LFE


蓝光高清网提示您  点击下方附件名称  马上开始下载

德黑兰行动/德黑兰 第一季4K Tehran.S01.HEBREW.2160p.ATVP.WEB-DL.DDP5.1.Atmos.DV.MP4.x265-4k杜比视界版本美剧下载


德黑兰 第一季4K Tehran.S01.HEBREW.2160p.ATVP.WEB-DL.DDP5.1.Atmos.DV.MP4.x265杜比视界版本【69.79GB】
德黑兰 第一季4k Tehran.S01.HEBREW.2160p.ATVP.WEB-DL.DDP5.1.Atmos.DV.MP4.x.torrent (文件大小:88.59 KB)
加入蓝光高清网VIP会员  无限制下载本站所有资源---点这里

资源下载、资源播放、字幕使用、无法下载等常见问题---点这里
回复

使用道具 举报

您需要登录后才可以回帖 登录 | 立即注册

本版积分规则

烧友之家(蓝光高清网)本站内容部分由用户自主分享和转载自互联网,转载目的在于传递更多信息,并不代表本网赞同其观点和对其真实性负责。 如有侵权、违反国家法律政策行为,请联系我们,我们会第一时间及时清除和处理!
蓝光高清网 综合资讯平台
关注我们
  • 官方微信公众号
  • 扫码下载官方APP

X3.4 Licensed© 2001-2013 蓝光高清网 烧友之家APP |网站地图