游客您好
第三方账号登陆
  • 点击联系客服

    在线时间:9:00-18:00

    客服QQ

    1371333023

    电子邮件

    lanniao@1080pro.net
  • 烧友之家APP

    随时掌握烧友资讯

  • 扫描二维码

    关注微信公众号

推荐阅读
蓝鸟
未知星球 | 未知职业
  • 关注0
  • 粉丝2
  • 帖子94272
精选帖子
开启左侧

然后怎样 4k How.it.Ends.2021.2160p.WEB-DL.x265.10bit.SDR.DDP5.1-4k电影下载—12.41 GB

[复制链接]
蓝鸟 发表于 4 天前 | 显示全部楼层 |阅读模式 打印 上一主题 下一主题
然后怎样
上映时间:2021年
类型:剧情 
地区:美国 
导演:Daryl Wein / Zoe Lister-Jones
主演:Fred Armisen / Cailee Spaeny / Zoe Lister-Jones
画质标准:4K SDR  封装音轨:Dolby TrueHD 5.1 Dolby Atmos 
豆瓣评分:5.2分

加入蓝光高清网,轻松下载最新4k资源

您需要 登录 才可以下载或查看,没有帐号?立即注册

x
简       介1 h$ H  p7 {' I" s+ i( L) {3 H

% ~3 Z5 ~7 r( [8 I) g  On the last day on Earth, one woman goes on a journey through LA to make it to her last party before the world ends, running into an eclectic cast of characters along the way.
2 w& n: J$ Q4 J- F) N& K, S( S/ ]: A- }6 i3 o/ ?& F0 ?# G

8 ^4 \6 o  G9 l& `5 v$ k影片参数
; p3 D8 h% G( m0 S4 n" V
然后怎样4k How.it.Ends.2021.2160p.WEB-DL.x265.10bit.SDR.DDP5.1-4k电影信息
2 Z! w* M  w& ?2 Y! Y1 DVideo! M* @1 ?8 Y$ P6 `2 x
ID : 1
( @* I. O6 C, m9 D, `* {, m; rFormat : HEVC+ k; [( k- ?& j
Format/Info : High Efficiency Video Coding( o. v" ?" m1 `3 \$ {6 t
Format profile : Main 10@L5@High6 M4 l0 x2 Q$ {9 U" j
Codec ID : V_MPEGH/ISO/HEVC
8 ]/ F( S  X8 G. {, C' R2 \8 U" ~Duration : 1 h 23 min
1 P& L& ^0 N2 p4 w  r  CBit rate : 20.7 Mb/s3 A2 N. d/ x5 R& w6 T$ N) T# m
Width : 3 832 pixels" g) o1 I; `# R+ u$ ]: C4 B
Height : 2 152 pixels1 }0 e! h0 G" F8 l
Display aspect ratio : 16:9
  R# p! v: |7 X7 W9 a: w3 iFrame rate mode : Constant
2 J) A; X! r# c1 R. {Frame rate : 23.976 FPS  p/ W- a, ^+ D$ Z* L- d! V
Color space : YUV% i+ K; {/ n9 ~0 t. f8 r
Chroma subsampling : 4:2:00 h4 }/ `& I7 v" U& @
Bit depth : 10 bits
' U1 y& E& x) N3 |8 EBits/(Pixel*Frame) : 0.105* H7 T/ R/ i. A! F! ~  v
Stream size : 12.0 GiB (97%)
8 ^8 `$ i5 [+ }9 Y! C; qDefault : Yes
4 p, {  U. T2 `4 o( `Forced : No
7 X/ B8 ^7 X: I0 [. d3 g1 j3 N( }$ _Color range : Limited
: j/ h7 q5 V$ X$ J& C! gColor primaries : BT.709
# k  ^" b/ a/ ?4 PTransfer characteristics : BT.709
0 j3 K5 S( {& W! m6 j- ]# WMatrix coefficients : BT.709( \: i. y9 k/ w! e8 \& u, t0 t
  c; ?4 _, W. o7 [  ?! m

( k4 w9 w, y( s9 `+ j- EAudio
: ~+ M4 a8 p: w' `( JID : 2
8 y  {( s$ Z; j: ^+ l) }4 EFormat : E-AC-3
, y7 N4 \; I5 M- U! J2 yFormat/Info : Enhanced AC-3& y4 C8 i( v2 i* ^/ L
Commercial name : Dolby Digital Plus+ P% w$ h' c. ^+ }* B: m0 y  N
Codec ID : A_EAC3( d7 _, v( f- g: F1 |
Duration : 1 h 23 min
# H; L5 i# M, N! ^+ m2 mBit rate mode : Constant
) }6 _( T2 M+ QBit rate : 640 kb/s. z  c8 U: u" s8 }& c8 i$ p' \0 z* [0 S
Channel(s) : 6 channels
2 f9 c8 m3 y5 H: j) h  oChannel layout : L R C LFE Ls Rs
* u- Q7 [2 d& s' C2 g& fSampling rate : 48.0 kHz
+ u9 a$ b6 T& Y2 Z& @% KFrame rate : 31.250 FPS (1536 SPF)
! ~" s3 I4 P: j' G8 QCompression mode : Lossy9 B" B' |0 J: d9 J, z3 n
Stream size : 380 MiB (3%)6 d' w0 i" ]1 ]8 u9 _- y: H& X
Language : English
$ M% p5 U" u4 X; R0 T' R/ I! RService kind : Complete Main( ~+ c5 m: S; y+ ]+ b
Default : Yes7 }5 w2 p( C5 |# ?
Forced : No

7 Z, Z0 E9 x- N/ q' g. a9 n) M% J* Q- Q# n9 p% p7 o/ N
蓝光高清网提示您  点击下方附件名称  马上开始下载% Q9 w; R- p  p

% r# b1 X& Q+ \0 Q+ y0 z; j$ U
: h; t& q) M- u, P$ w
然后怎样4k How.it.Ends.2021.2160p.WEB-DL.x265.10bit.SDR.DDP5.1-4k电影下载
3 j, c# _/ S/ _* N: ]# G& q$ {& `/ a  y0 Y8 m
然后怎样4k How.it.Ends.2021.2160p.WEB-DL.x265.10bit.SDR.DDP5.1【12.41 GB】
0 d# r8 ]+ @/ W& f' ~# L  K: [ 然后怎样4k How.it.Ends.2021.2160p.WEB-DL.x265.10bit.SDR.DDP5.1-NOGRP.torrent (文件大小:16.16 KB)
加入蓝光高清网VIP会员  无限制下载本站所有资源---点这里

资源下载、资源播放、字幕使用、无法下载等常见问题---点这里
回复

使用道具 举报

精彩评论2

ggang1 发表于 4 天前 | 显示全部楼层
谢楼主分享
回复 支持 反对

使用道具 举报

liyun80000手机认证 发表于 3 天前 | 显示全部楼层
谢谢分享
回复

使用道具 举报

您需要登录后才可以回帖 登录 | 立即注册

本版积分规则

烧友之家(蓝光高清网)本站内容部分由用户自主分享和转载自互联网,转载目的在于传递更多信息,并不代表本网赞同其观点和对其真实性负责。 如有侵权、违反国家法律政策行为,请联系我们,我们会第一时间及时清除和处理!
蓝光高清网 综合资讯平台
关注我们
  • 官方微信公众号
  • 扫码下载官方APP

X3.4 Licensed© 2001-2013 蓝光高清网 烧友之家APP |网站地图