游客您好
第三方账号登陆
  • 点击联系客服

    在线时间:9:00-18:00

    客服QQ

    1371333023

    电子邮件

    lanniao@1080pro.net
  • 烧友之家APP

    随时掌握烧友资讯

  • 扫描二维码

    关注微信公众号

推荐阅读
蓝鸟
未知星球 | 未知职业
  • 关注0
  • 粉丝2
  • 帖子95523
精选帖子
开启左侧

布鲁克林秘案 4k Motherless.Brooklyn.2019.2160p.WEB-DL.x265.10bit.HDR.DTS-HD.MA.5.1-4k电影下载—17.42 GB

[复制链接]
蓝鸟 发表于 2021-7-23 11:02:42 | 显示全部楼层 |阅读模式 打印 上一主题 下一主题
布鲁克林秘案
上映时间:2019年
类型:剧情 犯罪 
地区:美国 
导演:爱德华·诺顿
主演:爱德华·诺顿 / 古古·姆巴塔-劳 / 亚历克·鲍德温 / 鲍比·坎纳瓦尔 / 威廉·达福
画质标准:4K HDR  封装音轨:DTS-HD.MA 5.1 
豆瓣评分:7.0分

加入蓝光高清网,轻松下载最新4k资源

您需要 登录 才可以下载或查看,没有帐号?立即注册

x
简       介
" @! r2 n; V: A" [" _% X) K
( r7 t% F% h% {8 V2 F' S1 u  莱昂内尔(爱德华·诺顿 Edward Norton 饰)有着非常悲惨的过去,母亲在他很小的时候就撒手人寰,无依无靠的莱昂内尔被送进了孤儿院,幸运的是,在这里,他遇见了名为弗兰克(布鲁斯·威利斯 Bruce Willis 饰)的男子,在孤儿院里摸爬滚打这么多年,弗兰克一直对莱昂内尔提供着保护和帮助。离开孤儿院后,弗兰克成立了一家私人侦探所,莱昂纳尔则在其中打工。( w7 F1 B* F$ }% u! N' [2 b
  某日,弗兰克去送一份非常危险而又神秘的文件,哪知道这个任务让他丢掉了性命。弗兰克的死给莱昂内尔带来了巨大的打击,但现在还不是哀悼的时候,莱昂内尔决定查出这场死亡时间背后的真相,为老友讨回一个公道。
; l0 h8 |% u6 o  T. A( U3 r' i
4 P& U4 r# n2 V) d+ G9 M& |

( a# P0 t% z4 Z影片参数; R# T, ]! B  w% W1 J
无母之城(港) / 布鲁克林孤儿(台) / 布鲁克林的流浪儿/布鲁克林秘案4k Motherless.Brooklyn.2019.2160p.WEB-DL.x265.10bit.HDR.DTS-HD.MA.5.1-4k电影信息  u) k9 z" Q' L2 A! @" F; u$ r7 j& ?
Video! t' n7 M7 M  K& k4 b3 ]4 b  ^' N
ID : 1
  @( Q$ U. }! U& {" jFormat : HEVC
5 h6 o! b% N. f1 ]/ k5 H% K; iFormat/Info : High Efficiency Video Coding" d* Y  o6 p( j. y2 X
Format profile : Main 10@L5@High( f8 A9 o: a  f' D
HDR format : SMPTE ST 2086, HDR10 compatible9 I) z" P" F- Z5 H2 @# G9 j/ U+ b
Codec ID : V_MPEGH/ISO/HEVC
# {( c7 F4 {! f, d5 D+ hDuration : 2 h 24 min+ \" |4 G, ]' {5 x- ~& V
Bit rate : 14.5 Mb/s
' ]# _5 s. t8 Q! C' TWidth : 3 840 pixels' y/ a$ Y, f' o( e; [* G& i
Height : 2 072 pixels
$ A6 C2 d4 F/ s6 r& y! A* _! kDisplay aspect ratio : 1.85:11 X0 `( U2 j2 w7 l4 X/ ^
Frame rate mode : Constant/ ?3 u  O' f' p2 P- f2 W
Frame rate : 23.976 FPS/ }' E  y* K4 y( [2 p
Color space : YUV! y' ^! E& x* R4 w
Chroma subsampling : 4:2:0 (Type 2)
: V2 X, Y1 p/ U5 f; M) y9 ^Bit depth : 10 bits. |* @9 v2 [/ P. h  f
Bits/(Pixel*Frame) : 0.076
9 n# W! Z7 v7 xStream size : 14.6 GiB (84%)
  f2 I9 Z, z& h0 ]4 [  `0 K1 P$ h. eLanguage : English
- I) }/ ~0 [6 ?( [0 z' kDefault : Yes
$ {% S' h7 u2 n4 L: WForced : No; L2 Y9 `3 e* D3 L9 F" q
Color range : Limited
8 p; h( B! e: [& ]9 sColor primaries : BT.2020& K" l& ?: T9 `$ Q/ V8 W" ]6 x
Transfer characteristics : PQ, h% B3 Q! ^# o7 y9 M/ r9 h
Matrix coefficients : BT.2020 non-constant
* ~, i3 s4 f9 ?# s& J7 g, {Mastering display color primaries : BT.2020
/ I, a- R2 ]& \0 b6 ?% N0 sMastering display luminance : min: 0.0050 cd/m2, max: 1000 cd/m2: `& {: W; p; C$ o) x6 d: v
Maximum Content Light Level : 779 cd/m25 `7 f  W6 v3 k) o
Maximum Frame-Average Light Level : 437 cd/m2
9 f- l1 s# ~) V0 Q" O! n. _# V4 D0 x
, N: V  R. M& A  r
Audio #1" b( T0 i$ W( v6 E0 w, H
ID : 2
, e/ ]0 X) n) y# G# C# a% uFormat : DTS XLL: x, k$ o, u4 [+ ?/ B* Y' A1 j" D
Format/Info : Digital Theater Systems
- z1 G% D; ~9 b! H* ZCommercial name : DTS-HD Master Audio
) ^+ V% W: n5 K/ [. xCodec ID : A_DTS
8 R. U) @+ B, I2 o* A1 XDuration : 2 h 24 min- a# T. o* H" c
Bit rate mode : Variable
2 j& B' c6 ~7 T/ R, G% DBit rate : 2 163 kb/s
9 H2 k( v3 ^( c3 {2 z; nChannel(s) : 6 channels
2 P$ J; R; p" \: n% v6 N4 O# iChannel layout : C L R Ls Rs LFE
' f4 A$ `$ l6 Q* J7 r! t  u3 PSampling rate : 48.0 kHz* d% n7 c) X; D6 r1 G9 v" O
Frame rate : 93.750 FPS (512 SPF)
5 v2 P- l3 q( h: W' f2 w" Z+ z  Z9 XBit depth : 16 bits
7 |0 J; X# ^/ E. q/ ~& P+ ~; i; ECompression mode : Lossless
" F6 F: N: @4 r3 ]5 P8 IDelay relative to video : 5 ms* N+ k' h* q$ k2 \
Stream size : 2.18 GiB (13%)
! f, V) ]( \  y1 g# V" d, }8 Y3 UTitle : DTS-HD MA 5.1
9 J$ T, d1 Z' B# W( G* HLanguage : English
% n& x4 B+ Z! ~5 A0 VDefault : Yes
  l& c( ^% ^2 B2 D' O8 f$ `Forced : No& K2 m. [  R7 S8 H4 y; @% E
( w$ b- d" d+ t) \  u7 `/ d" U1 x+ y
# ]/ v! `+ E' T3 S
Audio #27 b. i$ L5 V+ x
ID : 3
  N4 b2 p( S9 q- t' ~' [8 h3 [Format : AC-3
8 G3 n1 w' O( h* yFormat/Info : Audio Coding 3
' T% ]6 u( @2 {Commercial name : Dolby Digital
3 |# L+ X6 e; J0 yCodec ID : A_AC3
) K0 U! i) J2 K" H! z& |Duration : 2 h 24 min
. S( y- S4 \1 tBit rate mode : Constant
& |  X3 ?# N' V8 I6 bBit rate : 640 kb/s$ d+ q- |* [" W! X
Channel(s) : 6 channels; N3 m- ~! d9 c7 J+ t7 C8 a
Channel layout : L R C LFE Ls Rs. m) V/ o6 B* H; S: B/ F
Sampling rate : 48.0 kHz; C! H! C' z2 D' h7 O
Frame rate : 31.250 FPS (1536 SPF)
. @2 E. t7 ^6 g3 f6 d1 @Compression mode : Lossy6 ]9 E- [' D, M
Stream size : 661 MiB (4%)3 U( S5 |. D- b% w) X- G8 H9 o! Q
Title : DD 5.1
0 T& h3 B; v% v  X9 T* T( yLanguage : English) B9 S3 L0 N1 M% Z+ O3 M
Service kind : Complete Main5 C& ^6 k# X% g8 q8 W! X0 E  ~4 z
Default : No: l  I7 L* N4 s. P( I* B
Forced : No

1 P3 n3 C2 X3 M8 a6 }" e  [
+ W) p1 T+ F' _2 H3 E/ @3 f. v& J# U蓝光高清网提示您  点击下方附件名称  马上开始下载. R$ _# _. u5 {8 p0 S1 V

$ H0 M$ d: N$ U
1 {) Q1 `( L  d/ A6 t3 m% c1 V) A
无母之城(港) / 布鲁克林孤儿(台) / 布鲁克林的流浪儿/布鲁克林秘案4k Motherless.Brooklyn.2019.2160p.WEB-DL.x265.10bit.HDR.DTS-HD.MA.5.1-4k电影下载
. {+ e( O% O: F% ~  Z( L  n5 F4 g6 o6 h* Z! I0 ?
布鲁克林秘案4K.Motherless.Brooklyn.2019.2160p.WEB-DL.x265.10bit.HDR.DTS-HD.MA.5.1-简繁中字【4K HDR 17.42 GB】3 A3 f. J2 B1 J& V' _: m! n% J, |( O5 C, k
布鲁克林秘案4K.Motherless.Brooklyn.2019.2160p.WEB-DL.x265.10bit.HDR.DTS-H.torrent (文件大小:22.44 KB)
加入蓝光高清网VIP会员  无限制下载本站所有资源---点这里

资源下载、资源播放、字幕使用、无法下载等常见问题---点这里
回复

使用道具 举报

精彩评论1

comnd 发表于 2021-7-26 20:38:15 | 显示全部楼层
沙发,应该不错的片子
回复 支持 反对

使用道具 举报

您需要登录后才可以回帖 登录 | 立即注册

本版积分规则

烧友之家(蓝光高清网)本站内容部分由用户自主分享和转载自互联网,转载目的在于传递更多信息,并不代表本网赞同其观点和对其真实性负责。 如有侵权、违反国家法律政策行为,请联系我们,我们会第一时间及时清除和处理!
蓝光高清网 综合资讯平台
关注我们
  • 官方微信公众号
  • 扫码下载官方APP

X3.4 Licensed© 2001-2013 蓝光高清网 烧友之家APP |网站地图