游客您好
第三方账号登陆
  • 点击联系客服

    在线时间:9:00-18:00

    客服QQ

    1371333023

    电子邮件

    lanniao@1080pro.net
  • 烧友之家APP

    随时掌握烧友资讯

  • 扫描二维码

    关注微信公众号

推荐阅读
蓝鸟
未知星球 | 未知职业
  • 关注0
  • 粉丝2
  • 帖子95523
精选帖子
开启左侧

左拉 4K.Zola.2020.2160p.WEB-DL.x265.10bit.SDR.DDP5.1.Atmos-4k电影下载12.81 GB

[复制链接]
蓝鸟 发表于 2021-7-23 11:07:23 | 显示全部楼层 |阅读模式 打印 上一主题 下一主题
左拉
上映时间:2020年
类型:喜剧 剧情 犯罪 
地区:美国 
导演:加妮克扎·布拉沃
主演:泰勒·佩姬 / 丽莉·吉欧 / 尼尔西·索弗朗 / 纳西尔·拉希姆 / 阿里尔·斯泰切尔
画质标准:4K SDR  封装音轨:Dolby TrueHD 5.1 
豆瓣评分:7.0分

加入蓝光高清网,轻松下载最新4k资源

您需要 登录 才可以下载或查看,没有帐号?立即注册

x
简       介
- A& |0 X  }* g) j6 Z& R
& {) [# d# u  W  讲述一名年轻的充满异域风情的舞者同意与一名妓女、她的男友和一名皮条客一起踏上前往弗罗里达的旅行,在途中,她收获到了比想象中更多的东西。8 C$ K# V; j/ r: z2 l
& ?2 l% O7 a9 F. v; Z% x* [

, ?' L5 `$ B0 s$ N8 _影片参数! c7 G4 y" y4 o+ s
左拉4K.Zola.2020.2160p.WEB-DL.x265.10bit.SDR.DDP5.1.Atmos-4k电影信息
; l9 J3 Z, ?" _/ _; kVideo
/ C% b. h; |; b) g, i7 u! v1 LID : 1
; v) O  D* t0 c& X5 ^- sFormat : HEVC
. T+ C5 P( l" \: s% X/ NFormat/Info : High Efficiency Video Coding$ p+ H  R1 E1 ~4 I+ s
Format profile : Main 10@L5@High
/ M) ^0 r0 q. s- m) ]1 X2 K0 Y: FCodec ID : V_MPEGH/ISO/HEVC
1 ^" I2 J! A! _" ~2 o6 \) M! q2 F1 qDuration : 1 h 25 min: b; D, |( h4 k" `  f: \
Bit rate : 20.6 Mb/s
  Y7 d! V% C- jWidth : 3 836 pixels
7 y: ?& e4 H0 f* rHeight : 2 072 pixels
( Z: e1 Q+ k6 |% X. tDisplay aspect ratio : 1.85:1
; R! ~6 Y) N9 cFrame rate mode : Constant
* F" F: e& B) g# l$ E" }1 vFrame rate : 23.976 FPS
7 l  F6 L3 b2 U( [! tColor space : YUV
9 n2 w) D7 n1 Y7 q; d* S2 F) X) iChroma subsampling : 4:2:0
# B4 C# q" P, t4 sBit depth : 10 bits
! t: X& h, h& e. gBits/(Pixel*Frame) : 0.108- e& {  Q8 p  T7 x% z) K$ c
Stream size : 12.3 GiB (96%)/ ~* H; s9 |2 e5 O2 ]
Language : English
- ~' e9 U! S: z0 C; b% DDefault : Yes) F: G5 I5 F6 Q" h# g
Forced : No
; f3 Y+ a4 w, rColor range : Limited
- m2 w" h0 O6 Q  K. @& c& U% vColor primaries : BT.709
  i9 |$ o8 S. ]1 u: }1 ^! L; ^4 p) wTransfer characteristics : BT.709
& X0 B( [8 R" e$ k2 p/ U; ?6 g8 z2 aMatrix coefficients : BT.709
3 M8 k: e) G- c. }1 h8 N2 |, T! m
* F* z& j. Z' u. B6 g
# F) ~2 E. ]8 x. k
Audio
" Z' O. H7 \) k# {1 RID : 24 i( r) [' k) L/ H$ U
Format : E-AC-3 JOC
$ g1 Q8 p# g8 j) E0 z1 T' pFormat/Info : Enhanced AC-3 with Joint Object Coding- H, {" v3 i2 p7 M
Commercial name : Dolby Digital Plus with Dolby Atmos
6 G# P. i; U/ o4 PCodec ID : A_EAC37 V$ P! {6 m, p. q$ T
Duration : 1 h 25 min# l1 H. v( d& l
Bit rate mode : Constant# @/ \4 x# \0 u5 D
Bit rate : 768 kb/s/ |: x; V% _; _7 p6 K7 K; h
Channel(s) : 6 channels$ L/ Z0 Y+ I2 B8 }& a2 d
Channel layout : L R C LFE Ls Rs
* `; y! L5 ~$ M! y, f! o9 X, QSampling rate : 48.0 kHz7 }4 }' i) [7 d# Z
Frame rate : 31.250 FPS (1536 SPF)
- O4 Z4 O' v+ D) z4 N0 t- VCompression mode : Lossy( g9 D* l0 Z# R& k6 m, s7 R
Stream size : 472 MiB (4%). ~. i6 V4 ]  r9 Q4 e
Title : English# V# ?) w/ I* ]: l* q0 C' T
Language : English  A1 A! m# P: E4 e7 w; v
Service kind : Complete Main6 E8 F+ ^& B8 I  {) |# P: z
Default : No. ?, F$ I$ Q* v" d) G# U3 J
Forced : No
# m' \% T7 S7 lComplexity index : 16
3 f4 L  {9 L# |Number of dynamic objects : 15
! \# p7 Y$ c  k, _Bed channel count : 1 channel
7 P; Z* n- o7 L7 `4 F% k  ABed channel configuration : LFE

! _" G  T) v* x& c! e9 O  h  s9 @# Q7 T) Y' D5 B8 L
蓝光高清网提示您  点击下方附件名称  马上开始下载( h' W# q: [3 }5 K1 p& d+ F7 R
- c2 }- ]) {, {$ A# t* Q& S- B
/ Q: i4 e6 M& T  U4 Q$ Z) `
左拉4K.Zola.2020.2160p.WEB-DL.x265.10bit.SDR.DDP5.1.Atmos-4K电影下载
. x5 |4 F# z6 ~3 t& d# t- q) [- ~
4 L7 k: z! e2 d, x  w0 h9 E左拉4K.Zola.2020.2160p.WEB-DL.x265.10bit.SDR.DDP5.1.Atmos【4K SDR  12.81 GB】
8 V# b3 j. F4 u+ F 左拉4K.Zola.2020.2160p.WEB-DL.x265.10bit.SDR.DDP5.1.Atmos-NOGRP.torrent (文件大小:16.64 KB)
加入蓝光高清网VIP会员  无限制下载本站所有资源---点这里

资源下载、资源播放、字幕使用、无法下载等常见问题---点这里
回复

使用道具 举报

精彩评论1

liyun80000手机认证 发表于 2021-7-23 22:09:04 | 显示全部楼层
感谢楼主分享
回复 支持 反对

使用道具 举报

您需要登录后才可以回帖 登录 | 立即注册

本版积分规则

烧友之家(蓝光高清网)本站内容部分由用户自主分享和转载自互联网,转载目的在于传递更多信息,并不代表本网赞同其观点和对其真实性负责。 如有侵权、违反国家法律政策行为,请联系我们,我们会第一时间及时清除和处理!
蓝光高清网 综合资讯平台
关注我们
  • 官方微信公众号
  • 扫码下载官方APP

X3.4 Licensed© 2001-2013 蓝光高清网 烧友之家APP |网站地图