游客您好
第三方账号登陆
  • 点击联系客服

    在线时间:9:00-18:00

    客服QQ

    1371333023

    电子邮件

    lanniao@1080pro.net
  • 烧友之家APP

    随时掌握烧友资讯

  • 扫描二维码

    关注微信公众号

推荐阅读
蓝鸟
未知星球 | 未知职业
  • 关注0
  • 粉丝2
  • 帖子95523
精选帖子
开启左侧

警醒 4k Jolt.2021.HDR.2160p.WEB.H265-4k电影下载— 9.57 GB

[复制链接]
蓝鸟 发表于 2021-7-24 12:15:54 | 显示全部楼层 |阅读模式 打印 上一主题 下一主题
警醒
上映时间:2021年
类型:喜剧 动作 
地区:美国 
导演:谭雅·维克斯勒
主演:凯特·贝金赛尔 / 斯坦利·图齐 / 鲍比·坎纳瓦尔 / 苏珊·萨兰登 / 杰·科特尼
画质标准:4K HDR  封装音轨:LPCM 
豆瓣评分:

加入蓝光高清网,轻松下载最新4k资源

您需要 登录 才可以下载或查看,没有帐号?立即注册

x
简       介
+ H+ ?8 b, \+ p' i" K) S" p; t% S, M0 p4 a- E
  琳迪这个漂亮风趣的女人有一个痛苦的秘密:由于终身的、罕见的神经紊乱,她经历了阵发性的狂怒杀人冲动,解决方式只有用特殊电极装置电自己。在一个害怕她的奇怪状况的世界里,她无法找到爱和联系,最终她信任了一个男人,并爱上了他,却发现第二天他被谋杀了。
) a+ m9 b. u: }3 R. P8 L  琳迪感到心碎和愤怒,她开始了一个复仇值拉满的任务,寻找幕后杀手,与此同时,她也被警察作为这个案子的头号嫌疑犯追捕着。

, S4 |; l7 E  F& {+ J3 Y9 w7 I! C7 [& n! ~

+ J7 `; C( t) h7 r- m5 ]影片参数
6 @0 f/ V3 W; L! Q& L. R
警醒4k Jolt.2021.HDR.2160p.WEB.H265-4k电影信息
  y( i! f) F# \8 `" x9 hVideo) A; Y; B% g  C& \" V3 t% @
ID : 1, ?! |: g% C2 L5 k
Format : HEVC2 x6 `6 o0 n; G( b( U2 _
Format/Info : High Efficiency Video Coding
5 g5 f/ G* {+ y; }5 UFormat profile : Main 10@L5@Main
' r) I) g" U4 I0 GHDR format : SMPTE ST 2094 App 4, Version 1, HDR10+ Profile B compatible
( u) A" i4 N7 F7 NCodec ID : V_MPEGH/ISO/HEVC
2 @: k2 X' K7 }( r6 {4 n) X8 ADuration : 1 h 31 min
' \8 @- J$ |% C5 `5 c# NBit rate : 14.4 Mb/s. |. V. h/ W- T2 \/ d8 R; y! W
Width : 3 840 pixels
. P3 T# r4 n3 ^) M- Q6 q% lHeight : 1 600 pixels
( D* O9 G% d+ w4 i% b7 EDisplay aspect ratio : 2.40:1
3 E- e) G( F, l# H% |3 ^Frame rate mode : Constant
1 \# j; q/ i) K6 iFrame rate : 23.976 (24000/1001) FPS' E0 P" R: {; E7 ~  q; g
Color space : YUV4 o) |, v1 {, A1 L$ x3 u
Chroma subsampling : 4:2:0
9 ]4 N% E- a" K8 Z. d1 YBit depth : 10 bits% ]/ f- G6 s) J) h: R9 u
Bits/(Pixel*Frame) : 0.098/ D3 d- k- n- y) p  }3 I
Stream size : 9.14 GiB (96%)
& O6 }. x( y% H7 e7 P8 ODefault : Yes
' w6 W8 r8 x: R; L7 U$ [$ KForced : No$ k& O, h' q# r  }
Color range : Limited
+ ~" i7 U& b: }' K0 C. DColor primaries : BT.2020: Q0 n6 A  ^% ]+ X, }
Transfer characteristics : PQ" U) |  \4 a* B0 A
Matrix coefficients : BT.2020 non-constant
4 g5 u6 W/ P, d: z% gMastering display color primaries : Display P3
# W$ A, w2 N2 y4 M) kMastering display luminance : min: 0.0001 cd/m2, max: 1000 cd/m2$ a8 `  s6 V9 |! t
Maximum Content Light Level : 1140 cd/m2
( [  j4 X, e' {; S5 sMaximum Frame-Average Light Level : 831 cd/m2' o/ q- e9 Z5 z' v+ t7 {) k: ^' C
* A1 ?7 Q" j# `; ~9 D  {/ l

$ Z0 g3 b( l& P, S3 jAudio; a: d+ ~5 k3 \/ L% B6 M
ID : 2& M( b3 @1 x' I9 x3 A
Format : E-AC-3
1 g; r3 z1 ?! M4 UFormat/Info : Enhanced AC-3
+ }0 T! y$ j! x8 Q4 R' ?( PCommercial name : Dolby Digital Plus, X& ^5 L0 J0 Q  r+ W- i- C: Q
Codec ID : A_EAC3
9 I  P: O) g; ?% R+ MDuration : 1 h 31 min/ Q- x) r; @0 f- o# G  X: l3 P9 }; a
Bit rate mode : Constant) E: @8 C; `, [/ e( \! n3 z
Bit rate : 640 kb/s
1 @0 g/ u1 `& z9 A. \Channel(s) : 6 channels' y% b4 s' y( L* e  s
Channel layout : L R C LFE Ls Rs5 W9 u& b9 M7 v# k3 f9 N$ r: P
Sampling rate : 48.0 kHz
5 g, g$ |. ]8 A8 B! y7 J9 PFrame rate : 31.250 FPS (1536 SPF). e5 c5 ^* o9 G! v8 K
Compression mode : Lossy
  R, n4 o! x% bStream size : 417 MiB (4%)& x3 |9 o+ ]! e8 w
Title : English
" _  x9 g7 G! R2 o0 O, U/ g# O5 PLanguage : English/ T' I- ?- i% J) ~: K9 m# W( E
Service kind : Complete Main
* z% }$ j( S. l1 bDefault : Yes
' Z* C% S* E5 G( d- X; bForced : No
# _! M* }, t- w. r7 W8 B; [

8 l, j' e9 h( U蓝光高清网提示您  点击下方附件名称  马上开始下载$ N, l# g: O7 g1 H1 b* @3 v& l
: y" C% G6 \' q8 m4 R0 a

" D9 [; W* W4 T警醒4k Jolt.2021.HDR.2160p.WEB.H265-4k电影下载: x% H* n& R: l; ~

! `: b! ?4 p& a* j9 ^3 W警醒4k Jolt.2021.HDR.2160p.WEB.H265【9.57 GB】) Z: y) v3 D# h" p* `: T
警醒4k Jolt.2021.HDR.2160p.WEB.H265-TIMECUT.torrent (文件大小:24.66 KB)
加入蓝光高清网VIP会员  无限制下载本站所有资源---点这里

资源下载、资源播放、字幕使用、无法下载等常见问题---点这里
回复

使用道具 举报

您需要登录后才可以回帖 登录 | 立即注册

本版积分规则

烧友之家(蓝光高清网)本站内容部分由用户自主分享和转载自互联网,转载目的在于传递更多信息,并不代表本网赞同其观点和对其真实性负责。 如有侵权、违反国家法律政策行为,请联系我们,我们会第一时间及时清除和处理!
蓝光高清网 综合资讯平台
关注我们
  • 官方微信公众号
  • 扫码下载官方APP

X3.4 Licensed© 2001-2013 蓝光高清网 烧友之家APP |网站地图