游客您好
第三方账号登陆
  • 点击联系客服

    在线时间:9:00-18:00

    客服QQ

    1371333023

    电子邮件

    lanniao@1080pro.net
  • 烧友之家APP

    随时掌握烧友资讯

  • 扫描二维码

    关注微信公众号

推荐阅读
蓝鸟
未知星球 | 未知职业
  • 关注0
  • 粉丝2
  • 帖子95523
精选帖子
开启左侧

布鲁克林 4K.Brooklyn.2015.2160p.WEB-DL.x265.10bit.HDR.DTS-HD.MA.5.1-4k电影下载—16.04 GB

[复制链接]
蓝鸟 发表于 2021-7-24 12:30:58 | 显示全部楼层 |阅读模式 打印 上一主题 下一主题
布鲁克林
上映时间:2015年
类型:剧情 爱情 
地区:英国 
导演:约翰·克劳利
主演:西尔莎·罗南 / 多姆纳尔·格里森 / 艾莫里·科恩 / 吉姆·布劳德本特 / 朱丽·沃特斯
画质标准:4K HDR  封装音轨:DTS-HD.MA 5.1 
豆瓣评分:7.9分

加入蓝光高清网,轻松下载最新4k资源

您需要 登录 才可以下载或查看,没有帐号?立即注册

x
简       介) r. F$ |( `* b! N5 f. q
) w' P0 z% r# Y
  艾莉丝(西尔莎·罗南 Saoirse Ronan 饰)离开了故乡,离开了母亲和姐姐,前往美国寻找更多的机会和更广阔的未来。在神父弗雷德(吉姆·布劳德本特 Jim Broadbent 饰)的帮助下,艾莉丝成为了一名售货员,出色的表现和不懈的努力让她成功获得了主管弗蒂尼(杰西卡·派尔 Jessica Paré 饰)的认可和肯定。之后,艾莉丝结识了名为托尼(艾莫里·科恩 Emory Cohen 饰)男孩,两人之间碰擦出了爱情的火花。6 T- ^- t1 V% k9 P+ r; Y0 e
  一场意外让艾莉丝重回故乡,很快,母亲的种种举动使她察觉,母亲希望自己留在这里,留在她的身边。在母亲的介绍之下,艾莉丝结识了善良的吉姆(多姆纳尔·格里森 Domhnall Gleeson 饰),并且得到了一个很好的工作机会,站在人生的十字路口前,艾莉丝会做出怎样的选择?

8 p* _1 U1 C$ O; k( s2 h. {# m: A
& ?% ?9 ^# ]* p6 a% q& i9 B
影片参数
) O$ i2 Y# a( P7 z( x7 G& E8 v: N
布鲁克林之恋(港) / 爱在他乡(台)/布鲁克林4K.Brooklyn.2015.2160p.WEB-DL.x265.10bit.HDR.DTS-HD.MA.5.1-4k电影信息5 v- @* o1 P+ W
Video/ a* A. {' t# C1 t6 y) w8 D" F
ID : 13 {. _" G2 K6 j# H
Format : HEVC" Q- U; V# d; W. ^7 \0 f  F
Format/Info : High Efficiency Video Coding% w8 J) s% v: S: |1 o
Format profile : Main 10@L5@High
4 O: P* i' X1 y2 {1 C2 w- R0 FHDR format : SMPTE ST 2086, HDR10 compatible
4 H  q" C, E1 B7 jCodec ID : V_MPEGH/ISO/HEVC6 d; R4 z3 C+ T$ |! A& Y2 n# a
Duration : 1 h 51 min- X  [/ M# W; u: J! \, J
Bit rate : 16.3 Mb/s( \: p7 K( o; X# w' P+ L/ H0 j4 c
Width : 3 840 pixels
  j) ^/ e* |& t/ `Height : 2 160 pixels# o- e: _( A! r0 [
Display aspect ratio : 16:9
! `; H( o2 B, H& i1 s1 k: sFrame rate mode : Constant2 ^" N7 N( A, g+ N
Frame rate : 23.976 (24000/1001) FPS
0 C1 A/ r8 `% }3 EColor space : YUV
, d; |' B: v/ j$ ^: r: k+ _3 O0 LChroma subsampling : 4:2:0
  B" o) I+ n- tBit depth : 10 bits
: Q+ y# ~* q( W7 I( P6 K8 N* cBits/(Pixel*Frame) : 0.082
5 t' J7 e8 m! z% C- w$ K1 [/ O  rStream size : 12.7 GiB (79%). `9 a, k0 V4 o3 w
Language : English
2 {5 x; @" G: _0 ~Default : Yes
$ q- ]% T0 b+ E0 T' v" FForced : No
; N& g1 i/ W. Q0 ^; d( W, t6 ^0 M: s+ WColor range : Limited
# I- D8 ]$ ~7 J( z% jColor primaries : BT.2020
6 O& ?; L$ K% W# v8 g7 qTransfer characteristics : PQ
/ t$ Z3 v7 M0 q* A0 BMatrix coefficients : BT.2020 non-constant
1 r, `: w1 D1 f3 ?$ bMastering display color primaries : Display P3$ T# n+ t6 B/ I7 Y! @1 ?/ T) j
Mastering display luminance : min: 0.0050 cd/m2, max: 1000 cd/m29 P# W0 H( c4 ^9 k8 ?+ F  W
. y' M9 w) \$ D+ W) j

% ^8 E; W8 c8 a7 I. r8 e( j3 ^# PAudio #1
; l. S; ^; Y9 a2 ?) Z. q3 Z$ MID : 2
' y, b' S" A( s0 l0 C: z$ z9 MFormat : DTS XLL% r- X. n6 l8 g
Format/Info : Digital Theater Systems' g4 l3 i; R' |8 B! A' Q
Commercial name : DTS-HD Master Audio
: w+ {- g9 E4 V& e9 [$ ~; [3 Z* uCodec ID : A_DTS: F0 C( B% Z! m: J* p
Duration : 1 h 51 min3 I7 F$ Z2 g- ]8 @, Y* c
Bit rate mode : Variable
4 Z4 \/ J) \# ~2 k" PBit rate : 3 435 kb/s
! \6 M( _' i2 KChannel(s) : 6 channels6 }% Y8 f! A; f# }4 ~; Z8 N
Channel layout : C L R Ls Rs LFE# q6 d5 R, A1 f$ x( c: C
Sampling rate : 48.0 kHz: O) `, D5 r! M' A; d% B( L
Frame rate : 93.750 FPS (512 SPF)
: j  I: a5 `9 \4 q* TBit depth : 24 bits
2 G) F9 B$ I6 m0 {" pCompression mode : Lossless' f1 S1 `& d, L
Stream size : 2.67 GiB (17%)! k; L4 c3 l$ B; [2 n) @8 Z
Language : English
( }, ~; z  C# d) ~7 F" g; w8 u" e' iDefault : Yes$ F& Z' P* v1 R9 V
Forced : No& ~# f, J0 O, x7 d3 n- W8 Y- e
, N1 Y! P0 X$ Q$ `% j. F

  u1 Y- W1 N. I4 F: LAudio #2* N/ B% ?  x2 ^) C7 R! J+ ?
ID : 3
0 g, ?8 D+ i* AFormat : AC-30 Q+ n2 i7 J0 {, ^; ?/ N% ~
Format/Info : Audio Coding 39 H) L5 w/ Z- l% [! ^# k3 ~+ \
Commercial name : Dolby Digital
1 k& j; f! i  I0 Y. Y" A7 ICodec ID : A_AC3
( @- h2 d1 D$ f- l5 m! |3 eDuration : 1 h 51 min; S) S# b% T! s- v5 w4 A. Y
Bit rate mode : Constant4 P: y. i) H) \. ~
Bit rate : 640 kb/s, @4 O% I2 z( N
Channel(s) : 6 channels( N4 E: a9 I2 w! s3 x( `
Channel layout : L R C LFE Ls Rs" |: d1 n( [8 C* W3 n
Sampling rate : 48.0 kHz
; }$ |) \# X  e/ ]Frame rate : 31.250 FPS (1536 SPF)+ ]1 z5 P3 N/ Z  N5 R9 I
Compression mode : Lossy
4 _" R1 `" K) IStream size : 510 MiB (3%)* J# ~* ^  B. Z
Language : English
- S9 E6 Q8 a0 E+ }4 CService kind : Complete Main$ Y7 [0 N5 W5 A8 B
Default : No# I% K8 v' ?$ }6 N, C* L
Forced : No" S, B3 X, A# b3 f$ I+ H

* |- f% [/ Q, Z/ L0 f; k

9 P" Y- k1 z! F1 Y& E& |$ TAudio #3
  y- _  |2 Q, \+ O! W# W. r  FID : 4, X  U% P0 R: {6 h+ R) A# M
Format : AC-3) y( a& v  {: {9 O# b
Format/Info : Audio Coding 32 R& C2 Q( S2 A) X7 k; p
Commercial name : Dolby Digital
$ _% z# l/ c& ]" F9 w/ xCodec ID : A_AC3
! X; M' |: s/ j+ BDuration : 1 h 51 min7 q$ ~/ n' L& q8 F# e
Bit rate mode : Constant  f: M% X2 d0 [3 X# z
Bit rate : 224 kb/s
1 @1 c! O2 N1 X9 MChannel(s) : 2 channels
7 e' V2 y5 S- ^* w: c5 q  V- TChannel layout : L R* C, \3 m$ R# b- ]0 p+ Y
Sampling rate : 48.0 kHz2 m1 H/ {; t9 v9 \! K
Frame rate : 31.250 FPS (1536 SPF)
! [8 K- H% Q9 N( L+ z+ n. U, b! U5 LCompression mode : Lossy
' Z, ~6 Y' C9 y5 I: ZStream size : 178 MiB (1%)0 x; z" R3 u- {# z0 w" X+ `) P
Title : Commentary by director John Crowley0 U" x9 e  g2 Z: \7 V
Language : English$ _$ ^4 ~. J7 W# P3 B2 k
Service kind : Complete Main, K+ B" V% X' B7 b/ `$ e
Default : No! w  B- X' r2 [9 X- \" M- n9 C$ v
Forced : No
3 L7 Q3 y7 h- m0 _/ F' x; a

2 s; n2 f) ]+ R) K! W- M0 T蓝光高清网提示您  点击下方附件名称  马上开始下载$ v# U7 W8 ?2 d. f' \

" x6 q: u! V8 n: D0 J
8 C5 X% f5 B4 a2 A6 D. p1 Y- d' N
布鲁克林之恋(港) / 爱在他乡(台)/布鲁克林4K.Brooklyn.2015.2160p.WEB-DL.x265.10bit.HDR.DTS-HD.MA.5.1-4K电影下载. ?8 w+ ?2 `, f/ V9 y; _

& \# i; f% l- m: x; b8 _2 r布鲁克林4K.Brooklyn.2015.2160p.WEB-DL.x265.10bit.HDR.DTS-HD.MA.5.1【4K HDR 16.04 GB 】) r' G" e' o& p: g8 P
布鲁克林4K.Brooklyn.2015.2160p.WEB-DL.x265.10bit.HDR.DTS-HD.MA.5.1-NOGRP.torrent (文件大小:20.7 KB)
加入蓝光高清网VIP会员  无限制下载本站所有资源---点这里

资源下载、资源播放、字幕使用、无法下载等常见问题---点这里
回复

使用道具 举报

您需要登录后才可以回帖 登录 | 立即注册

本版积分规则

烧友之家(蓝光高清网)本站内容部分由用户自主分享和转载自互联网,转载目的在于传递更多信息,并不代表本网赞同其观点和对其真实性负责。 如有侵权、违反国家法律政策行为,请联系我们,我们会第一时间及时清除和处理!
蓝光高清网 综合资讯平台
关注我们
  • 官方微信公众号
  • 扫码下载官方APP

X3.4 Licensed© 2001-2013 蓝光高清网 烧友之家APP |网站地图