游客您好
第三方账号登陆
  • 点击联系客服

    在线时间:9:00-18:00

    客服QQ

    1371333023

    电子邮件

    lanniao@1080pro.net
  • 烧友之家APP

    随时掌握烧友资讯

  • 扫描二维码

    关注微信公众号

推荐阅读
蓝鸟
未知星球 | 未知职业
  • 关注0
  • 粉丝2
  • 帖子95523
精选帖子
开启左侧

犬之岛 4k Isle.of.Dogs.2018.2160p.WEB-DL.x265.10bit.SDR.DTS-HD.MA.5.1-4k电影下载— 11.00 GB

[复制链接]
蓝鸟 发表于 2021-7-24 20:10:50 | 显示全部楼层 |阅读模式 打印 上一主题 下一主题
犬之岛
上映时间:2018年
类型:喜剧 动画 冒险 
地区:美国 日本 英国 德国 
导演:韦斯·安德森
主演:布莱恩·科兰斯顿 / 爱德华·诺顿 / 科宇·兰金 / 列维·施瑞博尔 / 比尔·默瑞
画质标准:4K SDR  封装音轨:DTS-HD.MA 5.1 
豆瓣评分:8.3分

加入蓝光高清网,轻松下载最新4k资源

您需要 登录 才可以下载或查看,没有帐号?立即注册

x
简       介! T$ ]; u: G% O. ]: ^

, A" D! ]: p* g) _% q7 S

5 K  e/ h' B0 i/ R$ m! `  故事发生在未来的时空之中,犬流感的肆虐让市长(野村训市 配音)颁布的狗狗流放法案,将城市里的所有犬类都投放到了“垃圾岛”之上,任它们自生自灭,市长家的护卫犬点点(列维·施瑞博尔 Liev Schreiber 饰)首当其冲。就这样,本来被养在家中锦衣玉食的狗狗们,都成为了要在垃圾堆里找食物吃的流浪狗。% ^; R$ E4 U+ h5 c+ @2 ]
  首领(布莱恩·科兰斯顿 Bryan Cranston 配音)、君主(爱德华·诺顿 Edward Norton 配音)、老板(比尔·默瑞 Bill Murray 配音)、公爵(杰夫·高布伦 Jeff Goldblum 配音)和国王(鲍勃·巴拉班 Bob Balaban 配音)是岛上的五只流浪狗,它们通常结伴行动。一天,市长的养子阿塔里(科宇·兰金 Koyu Rankin 配音)忽然驾驶着飞机降落在了岛上,他要在这里寻找他一生的挚友点点。
# y$ S/ z3 b2 `  `1 m* ^

: _' ~% C" Z/ Q$ f- r& ~+ ?

9 F% q5 P5 `0 ]影片参数
( Z6 R& W2 V, ?, `2 |5 v
小狗岛 / 汪星人之岛 / 犬ヶ島/犬之岛4k Isle.of.Dogs.2018.2160p.WEB-DL.x265.10bit.SDR.DTS-HD.MA.5.1-4k电影信息1 D. r. G1 D- ]6 x
Video# F! N; }8 Z7 M4 m1 i2 D" Y4 c
ID : 1/ Y* \" E' v7 B6 N
Format : HEVC
$ x7 M( @7 R2 w" D& M: dFormat/Info : High Efficiency Video Coding/ G" I4 |, T; o
Format profile : Main 10@L5@High+ ?4 s; k9 ~3 Z
Codec ID : V_MPEGH/ISO/HEVC
  ~* n2 r: Z% X, e5 b4 A  ]/ hDuration : 1 h 41 min
( _% L3 ?  D3 z. G! e  H& iBit rate : 11.7 Mb/s
+ X1 _( @, r( Z. fWidth : 3 840 pixels
5 e3 X" D5 h' T! ?Height : 2 160 pixels
$ S: K8 @* c* X0 L. J" M' dDisplay aspect ratio : 16:9
0 s8 i  E* O5 D# FFrame rate mode : Constant5 ?) q: U, Z' ~* }8 j2 V, D/ `
Frame rate : 23.976 FPS
3 W# ?7 l+ u) ZColor space : YUV
/ O( [' L" A8 w7 b6 tChroma subsampling : 4:2:0
+ n3 F( ?# q2 U+ [) \. g$ Z, Q4 GBit depth : 10 bits
" l) E4 v. v( p9 Z( XBits/(Pixel*Frame) : 0.059$ x4 H6 R- x6 @! P) |9 [
Stream size : 8.29 GiB (75%)) f3 d8 V0 f1 x) n
Language : English8 j; u" R; E) N; n; }9 h( j6 T
Default : Yes* k9 m( c! t& R- ?5 Z- c  B
Forced : No
- |. Q; T) T/ ]: a* {4 xColor range : Limited1 ]; P% }; o$ M+ W, O& t. M
Color primaries : BT.709
% T' @) H7 `8 n1 g* V, ZTransfer characteristics : BT.7094 N0 m" m! c* A& N
Matrix coefficients : BT.709/ ~( K% n3 Q/ K/ k( e

1 \4 o/ z, G8 f$ d

1 c5 L( X  q; FAudio #1# d3 g: j9 |! n- {( E) {
ID : 2' z' @: N# r+ g
Format : DTS XLL* x( x7 T( V# b! l6 ]# y
Format/Info : Digital Theater Systems0 m' x! W! u1 k" Y  a% A6 X
Commercial name : DTS-HD Master Audio
; n9 y* o& @% \% [# G8 b1 dCodec ID : A_DTS
) _$ a% c0 F  z. S8 yDuration : 1 h 41 min
. a6 X# s7 e( J1 r  RBit rate mode : Variable
' x: T" Y: H! o- A# SBit rate : 3 448 kb/s4 E; L; h5 ^, h
Channel(s) : 6 channels* D2 f4 ^$ x6 k
Channel layout : C L R Ls Rs LFE* l+ v2 ~' k# y. m5 r1 K
Sampling rate : 48.0 kHz
5 ~' Z" k1 `  e9 n% uFrame rate : 93.750 FPS (512 SPF)5 Z: p# P. h9 V3 u% u
Bit depth : 24 bits) K; Q7 x% J7 L. f1 G* x) P
Compression mode : Lossless
' N' k7 H7 J7 U0 o9 D, B2 |Delay relative to video : 3 ms
1 a( @5 _/ e) a7 y0 d$ C& a6 @$ PStream size : 2.44 GiB (22%)
/ d8 o) ]" d. I4 C4 nTitle : DTS-HD MA 5.19 ]3 F6 I! [  @9 j! i4 S  @
Language : English
6 q& B2 V4 i& f/ a$ yDefault : Yes
  c9 k' Q# @8 `5 [, v0 TForced : No; f1 z' J5 [( Z4 V3 H) m, [
- f  W& m7 Q2 d" m- J/ B7 }2 k! `
2 y  q7 t, `, Z0 j, V7 z$ s% E8 D* @
Audio #2
5 i$ B: w. A: i# Q! }- o; y/ sID : 3+ e, G1 x% g: P1 F' H/ X8 k
Format : AC-3
+ t7 K( N4 S3 DFormat/Info : Audio Coding 33 p  r$ J2 S' h; n9 g+ K# b; |
Commercial name : Dolby Digital
% i+ g4 ^' K" @: Q, s4 `: n* rCodec ID : A_AC3# k; ]9 q* c- m% j1 C
Duration : 1 h 41 min
" v) d0 G7 |+ I$ I6 v- Y0 |. aBit rate mode : Constant
% J0 a+ W  O0 U0 O5 d. ^" s4 bBit rate : 384 kb/s
" g7 y9 n9 e  E+ O% ?% _) RChannel(s) : 6 channels
" X5 i# q8 s( j$ |5 ^* Q' wChannel layout : L R C LFE Ls Rs
4 e9 R% |; i, X* M0 Q) ?Sampling rate : 48.0 kHz+ I) M0 b2 Y" U: e5 }
Frame rate : 31.250 FPS (1536 SPF)
0 `& ~3 q1 h- i' f: I% h2 W3 eCompression mode : Lossy2 l5 d- a  w" \% i! {
Stream size : 278 MiB (2%)/ l: C5 v; g, j; z" o
Title : DD 5.12 c+ y7 }' l$ z
Language : English" ?2 G! I3 S6 G- G
Service kind : Complete Main
! P" c4 ^3 ?" x1 |Default : No
6 K; X/ m9 ?7 P4 o! E' }" nForced : No

7 C1 B" C" E1 @" }3 i7 \% q( R+ ]  K) w- W: j( b
蓝光高清网提示您  点击下方附件名称  马上开始下载
/ m" @( Z! I) l" T  H2 F% j1 M7 W2 o% B
& B- j, {5 t" L" @5 e

/ X" Z8 y# j7 V9 A) n小狗岛 / 汪星人之岛 / 犬ヶ島/犬之岛4k Isle.of.Dogs.2018.2160p.WEB-DL.x265.10bit.SDR.DTS-HD.MA.5.1-4k电影下载! L: M1 H% H" q$ O# v! Z: h4 E7 C

2 Q/ f* Z; f5 }0 G6 ^8 Q: ~犬之岛4k Isle.of.Dogs.2018.2160p.WEB-DL.x265.10bit.SDR.DTS-HD.MA.5.1【11.00 GB】
  @0 M# z+ s* ?: o9 _. o6 m 犬之岛4k Isle.of.Dogs.2018.2160p.WEB-DL.x265.10bit.SDR.DTS-HD.MA.5.1-SWTYBL.torrent (文件大小:14.42 KB)
加入蓝光高清网VIP会员  无限制下载本站所有资源---点这里

资源下载、资源播放、字幕使用、无法下载等常见问题---点这里
回复

使用道具 举报

您需要登录后才可以回帖 登录 | 立即注册

本版积分规则

烧友之家(蓝光高清网)本站内容部分由用户自主分享和转载自互联网,转载目的在于传递更多信息,并不代表本网赞同其观点和对其真实性负责。 如有侵权、违反国家法律政策行为,请联系我们,我们会第一时间及时清除和处理!
蓝光高清网 综合资讯平台
关注我们
  • 官方微信公众号
  • 扫码下载官方APP

X3.4 Licensed© 2001-2013 蓝光高清网 烧友之家APP |网站地图