游客您好
第三方账号登陆
  • 点击联系客服

    在线时间:9:00-18:00

    客服QQ

    1371333023

    电子邮件

    lanniao@1080pro.net
  • 烧友之家APP

    随时掌握烧友资讯

  • 扫描二维码

    关注微信公众号

推荐阅读
蓝鸟
未知星球 | 未知职业
  • 关注0
  • 粉丝2
  • 帖子95610
精选帖子
开启左侧

第一头牛 4k First.Cow.2019.2160p.WEB-DL.x265.10bit.HDR.DTS-HD.MA.5.1-4k电影下载—24.12 GB

[复制链接]
蓝鸟 发表于 2021-7-24 20:14:17 | 显示全部楼层 |阅读模式 打印 上一主题 下一主题
第一头牛
上映时间:2019年
类型:剧情 
地区:美国 
导演:凯莉·莱卡特
主演:约翰·马加罗 / 奥赖恩·李 / 勒内·奥贝尔若努瓦 / 托比·琼斯 / 艾文·布莱纳
画质标准:4K HDR  封装音轨:DTS-HD.MA 5.1 
豆瓣评分:7.6分

加入蓝光高清网,轻松下载最新4k资源

您需要 登录 才可以下载或查看,没有帐号?立即注册

x
简       介
0 i; `2 l9 h- z, O! r+ \
9 M4 Z- h' a4 [6 t, v2 v& p  故事改编自乔纳森·雷蒙德的小说《半条命》,雷蒙德和导演雷查德共同改编,设定在十九世纪二十年代(即1820s)的俄勒冈,一个西方厨子Cookie(约翰·马加罗饰演)来到荒蛮的西部碰运气,遇到了同样前来寻找机会的中国移民King Lu( 奥瑞恩·李饰演),两人一见如故,并借着一头奶牛合伙做起了生 意。
# w  ?7 s3 r* i4 i7 @  {2 l9 c0 k, N* C
3 O1 Y* x# Y; }! t- c8 x
影片参数
9 }  Q/ G: P/ m. R! H) G  h
初生之犊(台) / 深夜里的美味秘方(台)/第一头牛4k First.Cow.2019.2160p.WEB-DL.x265.10bit.HDR.DTS-HD.MA.5.1-4k电影信息
9 E7 Q- J: J- P; P6 WVideo
  y  d2 p8 A; [% P1 UID : 15 t8 n) F& O9 M" `6 X0 ]. g
Format : HEVC( Z. y+ }& |5 _) @7 f/ A4 G8 t% [
Format/Info : High Efficiency Video Coding
2 a. ]+ A7 ^! e0 i% l4 LFormat profile : Main 10@L5@High" S! y& R" G# Y5 K& Y, K6 h
HDR format : SMPTE ST 2086, HDR10 compatible0 m3 ]& X# W3 c0 J# s  h6 S' O
Codec ID : V_MPEGH/ISO/HEVC1 r. N: ^) x0 |6 V) x! b
Duration : 2 h 1 min7 f3 y" Y8 f" x
Bit rate : 24.6 Mb/s3 J7 \7 j4 L  ^1 y
Width : 2 876 pixels4 m8 G. y5 O3 o) X
Height : 2 152 pixels
$ m0 k7 b5 X( [0 I9 a) b; XDisplay aspect ratio : 4:3! c  \2 f9 P6 k) j& v
Frame rate mode : Constant
, A9 H+ j8 p' ~" D8 X: _: S& |Frame rate : 23.976 FPS, `+ e2 Y9 m+ r3 i
Color space : YUV0 K# @) t7 {# `
Chroma subsampling : 4:2:0 (Type 2)
0 ~% @: m( J$ f% S' j' {; ZBit depth : 10 bits
7 `0 _0 }* l+ q! _; L9 Q% @7 i9 _# xBits/(Pixel*Frame) : 0.166) T7 f0 a) H$ z; v# V" ?
Stream size : 21.0 GiB (87%)* S$ ~. {2 f# ^8 J- ]; R( L
Language : English6 K* C8 S5 N0 |# n4 `
Default : Yes$ k. H$ B( `; `% B5 _; g7 f& U% J
Forced : No1 \/ U" W7 X4 {' i+ n
Color range : Limited
* Y: U+ H: G6 Q" W, v% `Color primaries : BT.20203 c/ s+ L% I9 k- d) j- o: R
Transfer characteristics : PQ* e6 z: W7 r4 b" u# U. d( Z/ t
Matrix coefficients : BT.2020 non-constant8 d' h: i, J* \" ?0 }, @& d
Mastering display color primaries : BT.2020* |8 A7 {+ a, a2 L1 B# Y5 z- O
Mastering display luminance : min: 0.0050 cd/m2, max: 1000 cd/m2, u$ H# u' S  n3 `
Maximum Content Light Level : 898 cd/m29 L9 Z) D2 B; W
Maximum Frame-Average Light Level : 30 cd/m29 S3 M& R; `5 \
7 B7 T$ Z6 m) F' l8 H  v8 ]
- l( u" Z8 M. S
Audio #1
2 @3 M% M- X' LID : 2
- ^4 {$ d/ Q; B( j8 B% eFormat : DTS XLL5 k, v/ o) r1 i) t6 O
Format/Info : Digital Theater Systems# M8 M2 |/ S1 d, q2 C( B" M
Commercial name : DTS-HD Master Audio
) l; B% b$ B  r1 `' \, }4 w& Y. wCodec ID : A_DTS7 r. Q& @. T3 v, y
Duration : 2 h 1 min
- q6 P2 U4 _+ n& \Bit rate mode : Variable
/ B- Z' a* f( SBit rate : 3 334 kb/s% T; T3 L9 ?: S% X% T
Channel(s) : 6 channels
  X+ `5 T! B0 ZChannel layout : C L R Ls Rs LFE0 o! `5 e8 @* r6 D
Sampling rate : 48.0 kHz
. Z! h0 D5 A  B7 ^Frame rate : 93.750 FPS (512 SPF)% `, W) V, J1 B/ D+ m" u" M& ?$ a
Bit depth : 24 bits; x9 s0 M$ H9 u6 S3 c% v' y
Compression mode : Lossless2 [5 f; y5 f2 b! P
Delay relative to video : 4 ms, X% E9 e" x& v2 `! e$ _$ A" a, z
Stream size : 2.84 GiB (12%)
1 c8 Z2 E& J# G7 O# l" q% ]  Q  MTitle : DTS-HD MA 5.15 _9 E6 b  s( }5 g: F! C
Language : English0 i( R4 U% v6 ^4 D3 ^3 d( N; t
Default : Yes# s3 C0 G/ b0 C
Forced : No
* W" ?( O& l$ B; }: I, b0 g5 e' W4 E% l. L" S5 c
# q, v7 ?/ p4 ~0 V" g+ D
Audio #2
0 _5 l; k/ P* P$ t4 E2 |! b! k0 N5 @ID : 3
' J' P5 {! n( }Format : AC-3) N0 q% w' S0 E% m6 Q" \5 N
Format/Info : Audio Coding 3; N' d  {, d6 |
Commercial name : Dolby Digital
6 Z, ^, J+ \, N0 s/ _+ CCodec ID : A_AC36 V( v- ^! D8 G, `) t/ E9 V
Duration : 2 h 1 min
# |6 h! N  T, i# m2 r% p+ ZBit rate mode : Constant
8 J- Z+ A0 _) `& a5 V# a  SBit rate : 384 kb/s3 D3 X/ i1 F6 u- T5 R
Channel(s) : 6 channels* `8 W/ d) {3 G
Channel layout : L R C LFE Ls Rs
/ E$ B! Q; p- N- y3 ~2 wSampling rate : 48.0 kHz! I% [/ E5 K3 S/ C6 m) g2 |+ C
Frame rate : 31.250 FPS (1536 SPF): A  i' s* S8 P$ |% m; q
Compression mode : Lossy
( N  q* j0 i' R/ ~Stream size : 334 MiB (1%)
9 n( K' H- Z3 l' sTitle : DD 5.19 b0 f, f. K& Q; Z% H) f" X& f
Language : English
4 t4 x1 O0 v0 j7 I7 f# K4 {Service kind : Complete Main' \7 K" m- k% B$ Q+ m' Z
Default : No
) Z% k3 P' r& I- M( XForced : No
4 F0 l/ W* q( Q2 J
7 u' W. E, m% H* j8 B1 T8 }
蓝光高清网提示您  点击下方附件名称  马上开始下载* ?" u* M# u% a/ r$ Q& X
# _9 s/ Y) ]# |) {1 T: p! S

6 q  l% b. g$ M* L4 H4 C6 R9 |多版本下载时请注意区分3 o# R5 o% S& U& P" f
: S8 N) R0 f1 @4 ^; W

) J5 P5 i$ X9 r: F" }: g初生之犊(台) / 深夜里的美味秘方(台)/第一头牛4k First.Cow.2019.2160p.WEB-DL.x265.10bit.HDR.DTS-HD.MA.5.1-4k电影下载5 u! ?- e, B& P8 ^  H* q; v  [# a# y( R  ~
" h$ V; ^$ M/ f& o* y% I9 A" Z
第一头牛4k First.Cow.2019.2160p.WEB-DL.x265.10bit.HDR.DTS-HD.MA.5.1【24.12 GB】& h" b, b5 P! q* a/ U
第一头牛4k First.Cow.2019.2160p.WEB-DL.x265.10bit.HDR.DTS-HD.MA.5.1-SWTYBLZ.torrent (文件大小:30.8 KB)
加入蓝光高清网VIP会员  无限制下载本站所有资源---点这里

资源下载、资源播放、字幕使用、无法下载等常见问题---点这里
回复

使用道具 举报

您需要登录后才可以回帖 登录 | 立即注册

本版积分规则

烧友之家(蓝光高清网)本站内容部分由用户自主分享和转载自互联网,转载目的在于传递更多信息,并不代表本网赞同其观点和对其真实性负责。 如有侵权、违反国家法律政策行为,请联系我们,我们会第一时间及时清除和处理!
蓝光高清网 综合资讯平台
关注我们
  • 官方微信公众号
  • 扫码下载官方APP

X3.4 Licensed© 2001-2013 蓝光高清网 烧友之家APP |网站地图