游客您好
第三方账号登陆
  • 点击联系客服

    在线时间:9:00-18:00

    客服QQ

    1371333023

    电子邮件

    lanniao@1080pro.net
  • 烧友之家APP

    随时掌握烧友资讯

  • 扫描二维码

    关注微信公众号

推荐阅读
蓝鸟
未知星球 | 未知职业
  • 关注0
  • 粉丝2
  • 帖子95610
精选帖子
开启左侧

浮生梦 4K.My.Cousin.Rachel.2017.2160p.WEB-DL.x265.10bit.HDR.DTS-HD.MA.5.1-4k电影下载—15.25 GB

[复制链接]
蓝鸟 发表于 2021-7-24 20:17:57 | 显示全部楼层 |阅读模式 打印 上一主题 下一主题
浮生梦
上映时间:2017年
类型:剧情 爱情 悬疑 
地区:美国 
导演:罗杰·米歇尔
主演:山姆·克拉弗林 / 蕾切尔·薇兹 / 伊恩·格雷 / 荷丽黛·格兰杰 / 波佩·李·弗里尔
画质标准:4K HDR  封装音轨:DTS-HD.MA 5.1 
豆瓣评分:6.4分

加入蓝光高清网,轻松下载最新4k资源

您需要 登录 才可以下载或查看,没有帐号?立即注册

x
简       介8 r+ _2 G* g/ R5 m

+ }! L% s  Q/ k5 O4 |/ j  菲利普(山姆·克拉弗林 Sam Claflin 饰)和自己的表兄阿姆布罗斯(迪诺·布加迪 Deano Bugatti 饰)之间的关系非常的好,两人经常来往。一天,菲利普震惊的收到了阿姆布罗斯的死讯,菲利普不相信这一切仅仅只是一场意外这么简单,于是决定亲自前往阿姆布罗斯留下的那豪华的别墅里去一探究竟。% L& X' y$ @4 Y6 [  a3 ~
  在那里,菲利普遇见了表嫂蕾切尔(蕾切尔·薇姿 Rachel Weisz 饰),菲利普怀疑这个美丽且恶毒的女人为了继承丈夫的巨额遗产而谋杀了他。但在两人朝夕相处的过程里,菲利普渐渐爱上了风情万种的蕾切尔,慢慢的打消了疑虑。可这一切对于蕾切尔来说意味着什么呢?她脑袋里的算盘没有人知道。
. p4 z1 k$ j+ r4 X
: m* T/ Y& t/ w: M) y
% H6 H9 A- H" ^$ |
影片参数
0 Z) a+ M& P8 a3 Z2 H8 _, x
遗孀美人心(台) / 情陷黑寡妇(港) / 断肠花/浮生梦4K.My.Cousin.Rachel.2017.2160p.WEB-DL.x265.10bit.HDR.DTS-HD.MA.5.1-4k电影信息
. J. R: l& _( J3 J1 bVideo# a5 L8 N# f7 _2 _9 n& c1 L
ID : 1; S2 U- a+ [% Y& i6 e8 W2 D
Format : HEVC/ W  }8 C3 P& v: }% T1 U1 |% ^
Format/Info : High Efficiency Video Coding$ z' U4 J5 ^( s3 U4 M2 j/ S
Format profile : Main 10@L5@High& o6 G+ D; |- E8 L4 y2 U
HDR format : SMPTE ST 2086, HDR10 compatible7 d. i7 M9 t0 [: j
Codec ID : V_MPEGH/ISO/HEVC
  b5 `. }+ v3 n' P' y1 EDuration : 1 h 46 min6 y- j9 ^5 s( m- |
Bit rate : 16.3 Mb/s5 P6 I4 x* v3 r, `2 @7 N( s7 ?
Width : 3 840 pixels9 V8 J. X3 \! \/ ^
Height : 2 160 pixels$ C9 R3 j8 H1 l. C
Display aspect ratio : 16:9
+ `, ?8 z: A8 |. uFrame rate mode : Constant
0 |: X: t' \5 i, M" z4 XFrame rate : 23.976 (24000/1001) FPS
" L$ e# |: F( Y* F/ \Color space : YUV
( v5 q; _) [" mChroma subsampling : 4:2:0
4 ?% t7 d7 L( P+ c2 ?; }) hBit depth : 10 bits' k; I0 w  D+ ?
Bits/(Pixel*Frame) : 0.0825 c8 W+ y: x% y3 `3 P  R/ N$ @# ]
Stream size : 12.1 GiB (79%)
; V/ q& g# V& j" gLanguage : English
4 ^  O% C+ d( i" N4 c. c2 cDefault : Yes
/ i4 S& H# o, o& e8 j1 F) n3 JForced : No2 V/ u  c. {9 g4 \2 s7 ]" N
Color range : Limited# T5 ~5 A2 i7 f3 J
Color primaries : BT.2020
% M4 ^+ ^% ?3 ~Transfer characteristics : PQ
; ~' @0 l3 z) jMatrix coefficients : BT.2020 non-constant
; v/ D4 u+ J& V  GMastering display color primaries : Display P35 m- a3 B4 J: ~4 j) r3 D! q
Mastering display luminance : min: 0.0050 cd/m2, max: 1000 cd/m26 w6 W9 T% X) V$ Q# L: F2 V5 p6 o
' F1 U( Q1 d( ?( X' v# S7 E$ q& S
$ g4 V1 y' d$ E9 u9 o  F
Audio #1
- [. q- ^  z& B- u& eID : 2
4 C3 k3 \$ {5 q) pFormat : DTS XLL
3 P) h2 W1 m) S* [$ k( X* u5 K1 P: \Format/Info : Digital Theater Systems
  ]  k& y6 o) C" p! ?# `) I9 bCommercial name : DTS-HD Master Audio
9 d# q- a/ O; `2 i1 D  L4 uCodec ID : A_DTS9 c& f0 @% T/ m. y4 T& b
Duration : 1 h 46 min* y0 y9 ?* @4 p% P, N" X
Bit rate mode : Variable: S' x# J; P& w" n. P0 I
Bit rate : 3 382 kb/s
- O; i+ A. W2 N2 o: \3 D6 nChannel(s) : 6 channels
5 {0 n4 `/ ?( _2 r2 o  vChannel layout : C L R Ls Rs LFE6 i9 |) J) M# D/ w- G3 e
Sampling rate : 48.0 kHz
9 u: p  N: k4 nFrame rate : 93.750 FPS (512 SPF)
/ u6 U+ G/ r4 n8 g! [Bit depth : 24 bits
$ x' ^: M! V  O  uCompression mode : Lossless
+ O: R) y) i, |Stream size : 2.51 GiB (16%): l: s7 c  w* u' E
Language : English
  s/ J+ j  e) u0 V9 R* {9 yDefault : Yes
7 N0 ~# X* }$ F& h: k+ \# H/ A3 TForced : No
6 @2 d5 K4 f  ~2 }4 j" z' D: F
6 {0 P4 B& p" j" O$ Y& J/ v
5 m" d  {/ D9 Y9 W3 l* y2 G. D
Audio #2
  Q& n' `/ V' `" ]* b, ^ID : 3, `/ _5 q% g: o  D, o; Z4 P
Format : AC-3
8 S( m: X7 ~' }/ qFormat/Info : Audio Coding 3
4 z# ]3 {% A& s9 f& vCommercial name : Dolby Digital
' X+ h7 t7 w6 F5 m, JCodec ID : A_AC3. S- j' ^5 M7 H& U
Duration : 1 h 46 min6 Z: ~" x& @! D9 C% r, b
Bit rate mode : Constant! F" @5 u' B" |4 H8 `9 r
Bit rate : 640 kb/s
* ]2 E' ~, Y6 w( _! PChannel(s) : 6 channels
# [0 h# ?2 Z# U& F7 w6 J; sChannel layout : L R C LFE Ls Rs% n8 m/ D* m+ t
Sampling rate : 48.0 kHz7 g3 W/ d& G& A/ {4 X9 z
Frame rate : 31.250 FPS (1536 SPF)
" H4 {' a7 ]0 n0 KCompression mode : Lossy  L8 n' h8 E% u2 D3 H
Stream size : 486 MiB (3%); U# \: v4 f4 J6 J
Language : English
' g# `, S, l( S( r/ Q# \Service kind : Complete Main. A) j! j6 p' ^
Default : No# ~$ n) l3 U8 y& c) k  T( h; Y) ?
Forced : No! o* f6 Z7 l! I
* u" n  t) [1 l

( c7 ]+ \/ ~6 XAudio #3
, ^5 O$ f5 p6 v; U, E! [5 K" YID : 49 k1 t. ]2 g5 o. v% D0 m
Format : AC-3
# w/ x4 C2 |  j2 y0 p5 vFormat/Info : Audio Coding 3
2 ^$ R: ^" E1 f- y: y8 cCommercial name : Dolby Digital
1 b& c! |$ D! g% r8 l+ r( X. d# J" k1 gCodec ID : A_AC3+ W3 C; ?+ u7 a( b; e
Duration : 1 h 46 min  p# u' Q' J8 C; ^' s; y
Bit rate mode : Constant
9 [; t! Z$ t8 }& w! m+ HBit rate : 224 kb/s; L2 @  e+ M% i
Channel(s) : 2 channels" D* c1 o0 D; V
Channel layout : L R6 c# p0 [' T6 u" Y
Sampling rate : 48.0 kHz
' Q& h. L& y" i1 i- `1 xFrame rate : 31.250 FPS (1536 SPF)
! m* G2 _0 k/ H) Z: h2 F2 g0 m8 c) WCompression mode : Lossy
4 |" J6 d1 o: S  LStream size : 170 MiB (1%)
6 [) z6 v3 j& p% O# i/ X" j1 N% mTitle : Commentary by director/writer Roger Michell and producer Kevin Loader7 ]0 S& w6 I/ b$ @/ |
Language : English
: e. T/ D7 x! g* n, q- @Service kind : Complete Main
9 P- m+ p2 n! n5 O8 Y+ \- j# lDefault : No4 M4 e5 w% u& V3 m
Forced : No

0 ~6 }7 w! U% b- ]" U

# u9 O$ O* `& j4 A' M蓝光高清网提示您  点击下方附件名称  马上开始下载
. B( @# o# {# L+ u4 {- K* B$ ~  e2 D) F
- T0 E# K; i! @/ A- f& \
遗孀美人心(台) / 情陷黑寡妇(港) / 断肠花/浮生梦4K.My.Cousin.Rachel.2017.2160p.WEB-DL.x265.10bit.HDR.DTS-HD.MA.5.1-4K电影下载
0 e8 }: E$ U& }) B  w4 Q- A; u" T' p) u2 R; F5 H) O* ^- v
浮生梦4K.My.Cousin.Rachel.2017.2160p.WEB-DL.x265.10bit.HDR.DTS-HD.MA.5.1【4K HDR 15.25 GB】
$ S3 m. u; u% M* l) `5 X% _: V* T6 O 浮生梦4K.My.Cousin.Rachel.2017.2160p.WEB-DL.x265.10bit.HDR.DTS-HD.MA.5.1-.torrent (文件大小:19.72 KB)
加入蓝光高清网VIP会员  无限制下载本站所有资源---点这里

资源下载、资源播放、字幕使用、无法下载等常见问题---点这里
回复

使用道具 举报

您需要登录后才可以回帖 登录 | 立即注册

本版积分规则

烧友之家(蓝光高清网)本站内容部分由用户自主分享和转载自互联网,转载目的在于传递更多信息,并不代表本网赞同其观点和对其真实性负责。 如有侵权、违反国家法律政策行为,请联系我们,我们会第一时间及时清除和处理!
蓝光高清网 综合资讯平台
关注我们
  • 官方微信公众号
  • 扫码下载官方APP

X3.4 Licensed© 2001-2013 蓝光高清网 烧友之家APP |网站地图