游客您好
第三方账号登陆
  • 点击联系客服

    在线时间:9:00-18:00

    客服QQ

    1371333023

    电子邮件

    lanniao@1080pro.net
  • 烧友之家APP

    随时掌握烧友资讯

  • 扫描二维码

    关注微信公众号

推荐阅读
蓝鸟
未知星球 | 未知职业
  • 关注0
  • 粉丝2
  • 帖子95610
精选帖子
开启左侧

阿珠与阿花4k Romy.And.Micheles.High.School.Reunion.1997.2160p.WEB-DL.x265.10bit.HDR.DTS-HD.MA.5.1-电影13.77 GB

[复制链接]
蓝鸟 发表于 2021-7-24 20:21:18 | 显示全部楼层 |阅读模式 打印 上一主题 下一主题
阿珠与阿花
上映时间:1997年
类型:喜剧 
地区:美国 
导演:大卫·米尔金
主演:Mira Sorvino / Lisa Kudrow / Julia Campbell
画质标准:4K HDR  封装音轨:DTS-HD.MA 5.1 
豆瓣评分:6.6分

加入蓝光高清网,轻松下载最新4k资源

您需要 登录 才可以下载或查看,没有帐号?立即注册

x
简       介
& t8 ]+ k+ P( Q7 _) E
+ Q# C8 T* ]8 j! ?; }9 c6 B  在曾经的青葱岁月中,罗米(米拉·索维诺 Mira Sorvino 饰)和米歇尔(莉莎·库卓 Lisa Kudrow 饰)是校园里靓丽的风景线,作风张扬又别具一格的两人在吸引众人眼球的同时也遭到了不少非议。如今,早已经走入社会的两人依旧维持着当初的友谊,只是,她们离曾经的梦想和梦想中的生活却很远很远。
  ^2 P: p2 u. Q# V7 @  即将举办的高中同学会犹如一道闪电照亮了两人平庸的生活,在虚荣心的驱使下,她们决定乔装打扮一番,企图再度找回做“女王”的感觉。不幸的是,在同学会上,曾经的死对头希瑟(詹尼安·吉劳法罗 Janeane Garofalo 饰)毫不留情的拆穿了罗米和米歇尔苦心营造的假象,就在两人窘迫不已之时,一度被嘲笑为“书呆子”的男孩桑迪(艾伦·卡明 Alan Cumming 饰)变身百万富翁出现在了她们的面前。
" C7 H7 V# M9 o2 R
" g" N# ^* P& ]& C* V
' f3 T& s! q2 f7 A. X9 V
影片参数1 R4 f2 }" T5 }
两朵校花 / 茶煲双妹唛 / 罗米与米歇尔的高中同学会/阿珠与阿花4k Romy.And.Micheles.High.School.Reunion.1997.2160p.WEB-DL.x265.10bit.HDR.DTS-HD.MA.5.1-电影信息3 F) `8 h, G8 p4 O0 Y
Video
) R" k$ m! V) L" ^) vID : 1% K) v. ?0 H* {7 d
Format : HEVC
- D- \3 m; x, g' h2 }- pFormat/Info : High Efficiency Video Coding, m8 o; i2 n2 ^! j1 C. C
Format profile : Main 10@L5@High$ Y& \/ o8 e3 C5 B* \4 b; c
HDR format : SMPTE ST 2086, HDR10 compatible5 m4 m6 T. K# o# O% T
Codec ID : V_MPEGH/ISO/HEVC7 P8 R# {7 d4 r0 ]; L
Duration : 1 h 31 min
4 d6 f% T9 e* aBit rate : 16.3 Mb/s
' X$ L. m8 B( k/ \3 sWidth : 3 840 pixels5 {4 q) d2 @9 P9 f0 e. o! _
Height : 2 160 pixels0 [; C/ ]! K' G. r" r5 _
Display aspect ratio : 16:9" t+ [# s4 G" w' j6 ^. d
Frame rate mode : Constant
! S9 f4 y; f! PFrame rate : 23.976 (24000/1001) FPS
2 b( `  ?9 y) J( S3 Q1 rColor space : YUV
5 Q$ S  s8 ?2 ^) nChroma subsampling : 4:2:0
9 \1 l, L- C7 C3 i4 OBit depth : 10 bits
5 N% ~; h3 D& Y9 L" v, w3 l( `$ G& `Bits/(Pixel*Frame) : 0.082
& F5 ^6 X% y& o6 m+ XStream size : 10.5 GiB (76%)
0 H# J: C% f$ O7 s+ f( FLanguage : English# V1 C& |  _% B$ u; }
Default : Yes" y0 z; C$ d/ W( W5 |8 |% g8 y
Forced : No' H+ b3 ^0 L* P9 f
Color range : Limited7 {9 `$ L$ T) [2 r/ `
Color primaries : BT.2020
8 |% ~' e) G) H+ c7 t  gTransfer characteristics : PQ1 A* n# E6 v+ ]4 x5 y+ b
Matrix coefficients : BT.2020 non-constant
9 C& q8 T, M* M( P- s9 r3 }! ~Mastering display color primaries : BT.2020
* @! I0 Z2 c- {) r$ x, r0 L# o# h# cMastering display luminance : min: 0.0001 cd/m2, max: 1000 cd/m2
" _7 @  G( ~* l( f$ g1 D, r/ l" c, X/ z1 ^( i; z  w- N, l' p9 M

- Z8 e# x4 U' S" z9 B  p' \Audio #1
5 W, V% L; e% f8 v$ _ID : 21 x8 @/ s& T7 ^, x3 ?! d3 R' G( k
Format : DTS XLL
7 J1 M. s2 R- u, |4 ?& }  V* |Format/Info : Digital Theater Systems
8 q& W+ S+ N" s" h% ]Commercial name : DTS-HD Master Audio; |( K3 B5 {8 c# o4 M9 o4 m
Codec ID : A_DTS" s- v  t6 t# M, w2 U; A2 {; d7 W
Duration : 1 h 31 min
4 g1 _; S( `& |9 u: W) \Bit rate mode : Variable0 r0 n4 L: M$ s: k7 Y4 k. v( E! n7 A
Bit rate : 4 484 kb/s
  E2 K, F2 b9 V* \5 \Channel(s) : 6 channels
- S% ?, ?' N0 G- R, n6 S, l6 BChannel layout : C L R Ls Rs LFE
- @. p5 m" z9 [. r6 T5 T. ?3 b+ OSampling rate : 48.0 kHz# g5 ?" ?9 a  r6 ^' ]  ~* q
Frame rate : 93.750 FPS (512 SPF)
! x1 O: {9 ^+ _- F: `$ S( V+ kBit depth : 24 bits, b( R8 N- m; M& A, V. `. _+ p
Compression mode : Lossless4 J+ {0 T" n) k( N, X4 {
Stream size : 2.88 GiB (21%)& _7 o; f; A6 e* x% a7 v  V$ A$ x
Language : English, H* |2 R0 [$ G5 [4 r' s* t+ K9 Q
Default : Yes- N5 i$ E3 x% I: n" K4 ~
Forced : No
; O# l7 k9 A4 I& E+ `0 r6 M) R% r9 @
! ]) q  @  A$ z3 F
Audio #2: ?' z* I: _$ r% E
ID : 3
  x  C7 s% N$ a9 x2 oFormat : AC-3; r& J. q9 c  _, a/ G: h% j
Format/Info : Audio Coding 37 ]8 E9 a* }0 J" `' y! \. K) B! \
Commercial name : Dolby Digital
& V% ^; \* m( D! |Codec ID : A_AC3* ~9 c6 r4 l1 u2 q( ]7 Q/ h, S
Duration : 1 h 31 min+ S: P3 R# D$ B
Bit rate mode : Constant9 O% W, d6 T/ ~1 h9 M. @
Bit rate : 640 kb/s6 K- I' P& j. r2 b1 S
Channel(s) : 6 channels  j3 K) T8 d8 d
Channel layout : L R C LFE Ls Rs
) F" r2 Z- y1 g- G! r# u9 F: i$ XSampling rate : 48.0 kHz% p1 k& @; R2 `# d" K* Q$ n; k
Frame rate : 31.250 FPS (1536 SPF); S; w! g$ u9 ]6 Y& g
Compression mode : Lossy
9 L9 t3 I( Y3 p% Z5 q8 zStream size : 421 MiB (3%)
( a+ N# o+ \+ L9 W" wLanguage : English* f9 i4 v, C) z1 C9 d1 `7 j6 I+ T: @
Service kind : Complete Main2 h1 a% N, m0 O+ c4 T/ U) A
Default : No
4 M9 n, v2 G$ o* BForced : No

" S5 ]: U/ ^, n- N) K* Z$ J. H  a/ _& \- b
蓝光高清网提示您  点击下方附件名称  马上开始下载
, P- t6 `/ b7 A9 |& h2 C! I9 H% M4 h3 q
9 E% m' a! D" B- W9 ]
两朵校花 / 茶煲双妹唛 / 罗米与米歇尔的高中同学会/阿珠与阿花4k Romy.And.Micheles.High.School.Reunion.1997.2160p.WEB-DL.x265.10bit.HDR.DTS-HD.MA.5.1-电影下载
  p: y* ^0 ^0 ~  U. ?/ m) h& [' F# R! r: v+ G5 A/ A
阿珠与阿花4k Romy.And.Micheles.High.School.Reunion.1997.2160p.WEB-DL.x265.10bit.HDR.DTS-HD.MA.5.1【13.77 GB】" B" f- N1 O7 w5 t- @$ V
阿珠与阿花4k Romy.And.Micheles.High.School.Reunion.1997.2160p.WEB-DL.x265.torrent (文件大小:17.9 KB)
加入蓝光高清网VIP会员  无限制下载本站所有资源---点这里

资源下载、资源播放、字幕使用、无法下载等常见问题---点这里
回复

使用道具 举报

您需要登录后才可以回帖 登录 | 立即注册

本版积分规则

烧友之家(蓝光高清网)本站内容部分由用户自主分享和转载自互联网,转载目的在于传递更多信息,并不代表本网赞同其观点和对其真实性负责。 如有侵权、违反国家法律政策行为,请联系我们,我们会第一时间及时清除和处理!
蓝光高清网 综合资讯平台
关注我们
  • 官方微信公众号
  • 扫码下载官方APP

X3.4 Licensed© 2001-2013 蓝光高清网 烧友之家APP |网站地图