游客您好
第三方账号登陆
  • 点击联系客服

    在线时间:9:00-18:00

    客服QQ

    1371333023

    电子邮件

    lanniao@1080pro.net
  • 烧友之家APP

    随时掌握烧友资讯

  • 扫描二维码

    关注微信公众号

推荐阅读
蓝鸟
未知星球 | 未知职业
  • 关注0
  • 粉丝2
  • 帖子95610
精选帖子
开启左侧

我为玛丽狂4k Theres.Something.About.Mary.1998.THEATRICAL.2160p.WEB-DL.x265.10bit.HDR.DTS-HD.MA.5.1-4k电影下载—17.90 GB

[复制链接]
蓝鸟 发表于 2021-7-24 20:41:32 | 显示全部楼层 |阅读模式 打印 上一主题 下一主题
我为玛丽狂
上映时间:1998年
类型:喜剧 爱情 
地区:美国 
导演:博比·法雷里 / 彼得·法雷里
主演:卡梅隆·迪亚兹 / 马特·狄龙 / 本·斯蒂勒 / 李·伊万斯 / 克里斯·艾略特
画质标准:4K  封装音轨:DTS-HD.MA 5.1 
豆瓣评分:6.9分

加入蓝光高清网,轻松下载最新4k资源

您需要 登录 才可以下载或查看,没有帐号?立即注册

x
简       介! w2 |3 p, ^  i) W0 _0 ?

8 n- x. |; V* y5 s8 h  泰德(本•斯蒂勒 饰)在十三年前认识了美丽的玛丽(卡梅隆•迪亚茨 饰)。当时他是个平凡的男孩,爱上的是众人的梦中情人玛丽,玛丽也因为泰德挺身而出救了玛丽患有精神病哥哥沃伦而对他产生了好感。可是因为阴差阳错,两人之间的恋情无法继续发展。
9 A  H/ j; ~( n7 Q  泰德从未忘记过玛丽,即使当今他已个有名作家。终于他在朋友的建议下雇私家侦探帕特(马特•狄龙 饰)寻找玛丽。帕特很快在迈阿密找到了玛丽,她依然美丽,身为外科整形医生的她为了照顾哥哥,仍孑然一人。帕特见到美女便会神魂颠倒,他深深的被玛丽吸引了。他决定要欺骗泰德说如今的玛丽变得潦倒贫穷,风采不再,希望借此能让泰德退出。帕特也不忘不择手段的追求玛丽,就在他即将得手的时候,真相还是被泰德知道了。
6 x2 [3 X) v0 [4 C& }  h5 ]  前往迈阿密的路上,泰德遇到一名变态杀人犯,泰德竟然被误以为是杀人凶手。同样的阴差阳错,他也在真凶落网的时候重遇了玛丽……
: o8 C! H$ U7 p+ b# X; j
! ]/ C) @( n% N9 N, j# N, J

; ~- C4 M1 y" `& ~: N1 o' q影片参数8 Q4 y  }, N9 K6 \9 }
都是玛丽惹的祸 / 哈拉玛丽 / 情迷索玛莉/我为玛丽狂4k Theres.Something.About.Mary.1998.THEATRICAL.2160p.WEB-DL.x265.10bit.HDR.DTS-HD.MA.5.1-4k电影信息& _  K( ?3 p  q6 p' r' X6 U
Video
: K" D0 I& v+ vID : 1! D, A5 x4 \; p& d
Format : HEVC' u3 {* r' \( s, m! y3 J2 d
Format/Info : High Efficiency Video Coding# N1 s( [1 h; V3 _. Q3 T
Format profile : Main 10@L5@High' Y+ I4 A( z& u. R; R
HDR format : SMPTE ST 2086, HDR10 compatible: H" P! F+ E; ~/ n" L- y/ t
Codec ID : V_MPEGH/ISO/HEVC
( B! y3 O9 V( ?Duration : 1 h 59 min5 n$ X7 H! E2 e0 e9 ]& W+ a
Bit rate : 16.3 Mb/s
! d2 e% A) j9 x5 i  W6 A, e! y8 eWidth : 3 840 pixels2 _, I7 ?# W1 _7 y+ P4 w
Height : 2 160 pixels2 u: V, z2 {/ b
Display aspect ratio : 16:9
+ b+ k. X* _. M1 I. c( \Frame rate mode : Constant
( ^1 s3 {6 }( g+ E$ [( {5 tFrame rate : 23.976 (24000/1001) FPS, E0 H- B$ j5 H
Color space : YUV
! I5 Z- k% G1 @, h/ y9 PChroma subsampling : 4:2:0- N2 Y, A  A5 M/ l# V8 y) [9 m0 S; n
Bit depth : 10 bits% H- X: O1 u6 p$ U' u4 |. l
Bits/(Pixel*Frame) : 0.0827 ?; y5 H+ r$ G0 f0 {- x
Stream size : 13.5 GiB (76%)
2 W" V0 |* x8 I, @Language : English1 A5 k7 R% i, N2 v1 f" o; k
Default : Yes
, r- q# x  P4 vForced : No! q$ I, ~3 s* K) e
Color range : Limited
/ w0 M" X+ h9 [+ f/ zColor primaries : BT.20207 {7 L9 v3 B" K8 L, q+ x: S
Transfer characteristics : PQ
/ D9 x5 p3 A; N8 j4 vMatrix coefficients : BT.2020 non-constant$ P6 `" j- Z9 s( m2 {
Mastering display color primaries : Display P3; q6 H- H3 F. K* L
Mastering display luminance : min: 0.0050 cd/m2, max: 1000 cd/m2
* B1 T9 ~, I. m5 D
1 j$ G* x+ p0 g. J" B$ w) V

3 {: p6 r5 F' R; gAudio #16 S. ~2 f  U) K
ID : 20 D* I# }- V) t% g2 O$ g4 W0 r% A
Format : DTS XLL4 X4 L* z3 {. |6 s( ^$ q1 B$ U0 E
Format/Info : Digital Theater Systems
& b, q# x5 g, R- m: Q6 ?+ g' CCommercial name : DTS-HD Master Audio
  K$ F+ F5 _5 V  J1 E, j  FCodec ID : A_DTS  O- b( }5 D( d
Duration : 1 h 59 min
1 R# ~6 \! T& u( kBit rate mode : Variable
# C8 P8 @/ r# uBit rate : 4 148 kb/s
7 m5 Q% O  K- PChannel(s) : 6 channels  V9 B5 |4 \( ?7 Y6 O# F
Channel layout : C L R Ls Rs LFE8 {: q' ?$ \% K9 e
Sampling rate : 48.0 kHz
/ s' e8 ?# @( l4 P) {Frame rate : 93.750 FPS (512 SPF)
/ W. i' i" X+ |$ g# ^' cBit depth : 24 bits7 i8 a/ s& Y* s+ i
Compression mode : Lossless! q% h, b% [4 I
Stream size : 3.45 GiB (19%)
1 a5 K! y% X$ Q' T& MLanguage : English9 G8 K9 h$ x; f2 S: k" U) l0 E
Default : Yes2 ~/ v, @2 `5 h  l% u% B
Forced : No
" M- V% G4 x( p  ~0 s' u- o
/ a9 [3 k4 s% G' \. R  M
: I0 L0 ~5 `, a' s; Q0 n+ y9 C
Audio #2! X* o7 b4 N3 M
ID : 3
% |% j( k$ A3 q# T/ P( b, IFormat : AC-3+ l* F: W. h  L% ^# w% b* E+ @% q
Format/Info : Audio Coding 3$ w' x6 l3 v& C& P* T# A
Commercial name : Dolby Digital
$ |7 s1 i5 q! K6 k. W: ICodec ID : A_AC34 w, f* ?% ]" K" ?3 d
Duration : 1 h 59 min
8 n: v( \  ~$ \/ o$ A7 PBit rate mode : Constant* ]9 s- q# L1 K8 h. ?
Bit rate : 640 kb/s
% f- s! e8 R- d, P- t! HChannel(s) : 6 channels
' m9 a# [# ]; u, B1 t- p2 ^Channel layout : L R C LFE Ls Rs  ]. j$ j& [0 K% a
Sampling rate : 48.0 kHz
2 L9 x/ R' X. T+ y7 \; VFrame rate : 31.250 FPS (1536 SPF)) k+ A7 q( {; ~$ C+ {( s9 I8 W
Compression mode : Lossy
# ^  g) O% U" L( d" g& Q4 m( KStream size : 545 MiB (3%)
! y3 t% z, L/ N5 E9 o8 w- U) O! q; |Language : English/ c" Z4 @0 \* Q6 C
Service kind : Complete Main& U% a+ o4 z* s/ b+ @% r
Default : No
$ T1 N9 c4 l' h. S; C1 O- MForced : No' G( V2 p/ e" [7 P! R. i
! v0 R; l, P0 C6 r! i( n

$ Y9 _$ G' Q* i% y7 {Audio #3: M, R/ r. _, v7 D
ID : 4! C: [# h7 e$ e. i( Y
Format : AC-3
5 \0 t7 A$ a% `9 U' c+ ]7 {Format/Info : Audio Coding 3
# I8 n3 o& \8 A! `5 P: D8 ~Commercial name : Dolby Digital
$ [, w  g6 X3 A  }: ^/ VCodec ID : A_AC3
0 G: U6 h1 P2 R! ~1 a3 dDuration : 1 h 59 min
0 I4 W- M9 u& @/ D% {/ {) rBit rate mode : Constant
: g, o# d  }5 p& M' }& C$ j4 Q- vBit rate : 224 kb/s
4 L* `/ u; y6 x+ z- _8 I0 F8 AChannel(s) : 2 channels
7 x% E, J8 e: _7 t5 g8 [5 YChannel layout : L R2 R% T$ B3 o; j6 |- X+ O* M2 l
Sampling rate : 48.0 kHz( t* b% B3 {: e
Frame rate : 31.250 FPS (1536 SPF)
$ C: p0 k% K8 O# M1 ~& ?  q" NCompression mode : Lossy
* \3 a1 _! w/ ?, EStream size : 191 MiB (1%); ]0 |0 k3 C" y8 f/ v0 `) P: Z5 q# h
Title : Commentary by co-directors/co-writers Peter and Bobby Farrelly) [0 S1 v0 I) X% L/ G! C! I3 _
Language : English4 C6 G1 `& C7 e- p; |: z' D
Service kind : Complete Main
) |; g  z$ Z1 `! h- Y; R. ^1 J6 `! CDefault : No0 v+ k8 Y% \/ a" m
Forced : No
* u# v5 S6 `2 h- n  O9 u/ H' ^; y, s# T0 R

8 Y3 F9 N3 ~2 }( F. vAudio #4
$ i* M/ x- H+ P  W* [  YID : 55 E3 k6 K/ ^: \9 s- o4 m5 S7 H
Format : AC-32 h  e$ p* g2 }: @1 i. x
Format/Info : Audio Coding 3' u0 d" h+ L0 P% F+ }& P6 o
Commercial name : Dolby Digital
* \. B8 s# m+ k( l3 u5 dCodec ID : A_AC3% m# V% S8 N9 q
Duration : 1 h 59 min0 Q! t" H5 ]( m/ G' e6 w
Bit rate mode : Constant
) H+ q  i6 l* _5 q3 lBit rate : 224 kb/s- ^' B2 q; A6 B6 G
Channel(s) : 2 channels
8 D. a' {0 E' m) x9 aChannel layout : L R
, W: p' g  o7 r3 _  qSampling rate : 48.0 kHz
+ J4 W' I. Q6 V; J" ^. L1 sFrame rate : 31.250 FPS (1536 SPF)7 i3 {: U6 V2 Q( C, [9 V
Compression mode : Lossy
4 P- ?! K6 V8 l# Q, b, pStream size : 191 MiB (1%)
% Q& O5 @) I/ V4 x# ^Title : Commentary by writers Ed Decter and John J. Strauss: t+ o( r* ^" Q. ]5 V0 [
Language : English4 M/ B3 a. K4 z' I' ?( e
Service kind : Complete Main, p+ t8 o, \) j! r$ u8 \: C- v
Default : No
/ M9 t( E9 L3 h- g) `: vForced : No

7 e$ W8 V; E, u% y* p' j蓝光高清网提示您  点击下方附件名称  马上开始下载+ m1 \2 y& X0 I1 q: G) x! [  T
" E8 X, y7 B7 ?6 L; V4 k3 `
都是玛丽惹的祸 / 哈拉玛丽 / 情迷索玛莉/我为玛丽狂4k Theres.Something.About.Mary.1998.THEATRICAL.2160p.WEB-DL.x265.10bit.HDR.DTS-HD.MA.5.1-4k电影下载. W4 c, T9 a; u  _  B1 `+ o

* W5 \" l, ]. p( |, t" s8 o

4 ], y0 O7 p$ c2 `. d5 J我为玛丽狂4k Theres.Something.About.Mary.1998.THEATRICAL.2160p.WEB-DL.x265.10bit.HDR.DTS-HD.MA.5.1【17.90 GB】0 w, y+ m# }/ z
我为玛丽狂4k Theres.Something.About.Mary.1998.THEATRICAL.2160p.WEB-DL.x26.torrent (文件大小:23.08 KB)
加入蓝光高清网VIP会员  无限制下载本站所有资源---点这里

资源下载、资源播放、字幕使用、无法下载等常见问题---点这里
回复

使用道具 举报

您需要登录后才可以回帖 登录 | 立即注册

本版积分规则

烧友之家(蓝光高清网)本站内容部分由用户自主分享和转载自互联网,转载目的在于传递更多信息,并不代表本网赞同其观点和对其真实性负责。 如有侵权、违反国家法律政策行为,请联系我们,我们会第一时间及时清除和处理!
蓝光高清网 综合资讯平台
关注我们
  • 官方微信公众号
  • 扫码下载官方APP

X3.4 Licensed© 2001-2013 蓝光高清网 烧友之家APP |网站地图