游客您好
第三方账号登陆
  • 点击联系客服

    在线时间:9:00-18:00

    客服QQ

    1371333023

    电子邮件

    lanniao@1080pro.net
  • 烧友之家APP

    随时掌握烧友资讯

  • 扫描二维码

    关注微信公众号

推荐阅读
蓝鸟
未知星球 | 未知职业
  • 关注0
  • 粉丝2
  • 帖子95610
精选帖子
开启左侧

我恨你的十件事4k 10.Things.I.Hate.About.You.1999.2160p.WEB-DL.x265.10bit.HDR.DTS-HD.MA.5.1-4k电影下载—13.87GB

[复制链接]
蓝鸟 发表于 2021-7-24 20:47:39 | 显示全部楼层 |阅读模式 打印 上一主题 下一主题
我恨你的十件事
上映时间:1999年
类型:喜剧 爱情 
地区:美国 
导演:吉尔·约格尔
主演:朱丽娅·斯蒂尔斯 / 希斯·莱杰 / 约瑟夫·高登-莱维特 / 拉丽莎·奥蕾尼克 / 大卫·克朗姆霍茨
画质标准:4K  封装音轨:DTS-HD.MA 5.1 
豆瓣评分:7.9分

加入蓝光高清网,轻松下载最新4k资源

您需要 登录 才可以下载或查看,没有帐号?立即注册

x
简       介
% n9 u2 D( Q0 s: ~3 n$ r5 p- ]5 Q
  比安卡(Larisa Oleynik饰)是全校公认的甜心宝贝,可事实上,她甚至未有过一次约会——比安卡的老爸对女儿的管教极尽苛刻,男生们只能对她望而却步。
9 W+ a% s- u+ H7 m. |( p  在女儿的不断抗议下,老爸终于做了“让步”,他声明,比安卡可以约会,只要她的姐姐凯特(Julia Stiles饰)也去。听到这个消息,暗恋比安卡的喀麦隆(Joseph Gordon-Levitt饰)决心无论如何都要找到能和凯特约会的人。千挑万选之下,他找到派特里克(Heath Ledger饰)帮忙。
% F% d: B9 A- T! X  凯特可是人人眼中的怪物啊,仿佛愤世嫉俗般,对任何人和事都有一股不满的情绪。要让约会顺利进行,这是前所未有的挑战,还是一个不可能的任务?

3 c- @5 {. Q& Q1 n  \$ i% K& _, P$ x0 ~; m0 R9 [- A0 Z

) H7 X1 \0 d0 K2 N' D+ f影片参数
, @; T* A) d: v8 T7 r
对面的恶女看过来 / 恋爱新世纪 / 十宗罪 / 十个我恨你的理由 / 我恨你的10件事 / 我最恨你的十件事情/我恨你的十件事4k 10.Things.I.Hate.About.You.1999.2160p.WEB-DL.x265.10bit.HDR.DTS-HD.MA.5.1-4k电影信息5 j& C; B$ v$ x1 V5 T, X% H! D3 N: o
Video1 T4 |( A6 L5 y: j' l+ d' c
ID : 1* K# n+ q7 M0 v% N7 U
Format : HEVC
* @4 l7 M( n0 M- B* O2 _Format/Info : High Efficiency Video Coding, s+ |& n) N0 R2 c
Format profile : Main 10@L5@High3 C' d  Y8 V% ]% c8 S# f
Codec ID : V_MPEGH/ISO/HEVC  M0 J3 Q# C5 A4 w' G6 I% {
Duration : 1 h 37 min  n( x6 N" p" O- V% A
Bit rate : 16.6 Mb/s
9 {2 v8 @6 ^& \5 @+ hWidth : 3 840 pixels4 [% l7 E" e4 u( U# b/ K
Height : 2 160 pixels3 C$ H" q+ v  N7 Z* |
Display aspect ratio : 16:9
' S- @1 n. ]" ~: o- uFrame rate mode : Constant
; K, ~* n/ F( f0 lFrame rate : 23.976 (24000/1001) FPS. w% k/ @! ?; i$ R  h5 z2 K
Color space : YUV% T# E% ]7 n9 @& x5 t# J
Chroma subsampling : 4:2:0
0 L3 M1 t" P) _/ JBit depth : 10 bits
& F  S) C4 v& Q$ C& Y& I" V; V0 Y3 `Bits/(Pixel*Frame) : 0.083
6 I/ s4 C, z! B1 ~Stream size : 11.3 GiB (81%)
  N4 d6 L! q4 B& O$ A$ l: {Language : English7 ?& J( b' B* V) U1 A6 q
Default : Yes
  w/ o* Q8 v9 Q4 n4 z* e6 d- _1 N& W& dForced : No) q2 Y" C: @0 _) y$ j
Color range : Limited
/ {  i- m& H% x6 g5 a% \Color primaries : BT.20203 U0 V! H: q: c1 F  S. h* Y
Transfer characteristics : PQ8 |8 o* W- g0 M; T
Matrix coefficients : BT.2020 non-constant
9 O4 Q5 N  p& C4 r
, T, \9 H# B5 @8 d3 {% E1 E( V- l

* [7 w' J1 n& k" H5 \/ e/ p2 PAudio #1
& @# n# ~4 b# ~& i5 G! a9 |ID : 2. K. O% f+ t; Z  w# ~; z7 T
Format : DTS XLL2 ]. D* ]/ Y! j  D7 P# {0 q9 e0 Q3 D
Format/Info : Digital Theater Systems3 H- u' d5 E6 S3 F( I. x
Commercial name : DTS-HD Master Audio3 d7 A0 e/ U" L  d! a
Codec ID : A_DTS5 j0 C8 ]9 d, g: c5 S5 D6 j
Duration : 1 h 37 min
3 e8 [' {8 [8 i+ B0 DBit rate mode : Variable$ ~- y7 Y7 S  d! V9 ?. X* F
Bit rate : 2 929 kb/s- X: Y1 z0 }/ _6 d8 t* u, H
Channel(s) : 6 channels
0 H! ~: H8 W0 `4 m0 G+ IChannel layout : C L R Ls Rs LFE" v% u; F3 L/ A* t: b5 ^
Sampling rate : 48.0 kHz
" h% j% B+ L1 F, u7 M8 ]Frame rate : 93.750 FPS (512 SPF)
, A' I8 @# o  o2 R# {  G7 `3 EBit depth : 24 bits8 c! ^, D& u8 W1 T& v* _
Compression mode : Lossless$ O0 H& x7 U  j1 u" S! h
Stream size : 2.00 GiB (14%)
1 T# [4 ^' B7 c* w. t0 T$ B( tLanguage : English
. [1 U7 V2 N7 ]# W+ |2 E+ f+ fDefault : Yes
, W4 G- a% Z, nForced : No
7 p& f( A8 j* \  d/ x# a/ E! V

- _2 U1 s! z8 w8 k9 s* L0 c$ ]Audio #2. l. U1 D5 R( h. D3 {7 _
ID : 3
  B6 F- a- L8 y2 TFormat : AC-3
3 D! b8 N. n) D6 Y- YFormat/Info : Audio Coding 34 S( l. _8 T% I/ I: j. s% F( f
Commercial name : Dolby Digital; _) U/ Y9 \. q; I% U. f
Codec ID : A_AC3
' t  P3 W. Z% H9 E' w. n: y* pDuration : 1 h 37 min; A3 R9 F, E# g! K7 J; U
Bit rate mode : Constant
. A) O# i5 A; C, W( FBit rate : 640 kb/s
; o: C9 b* H$ j/ s% a  PChannel(s) : 6 channels
# G" k0 a' c. i) x' j0 W5 a) wChannel layout : L R C LFE Ls Rs2 `, L3 o5 h; ^# q
Sampling rate : 48.0 kHz
/ ?% h0 d8 f. j( s9 Q3 AFrame rate : 31.250 FPS (1536 SPF)
' r3 j* R' x# ICompression mode : Lossy
7 w& r3 K: d0 h* G( \5 pStream size : 447 MiB (3%), P; |, ]( h- f; X4 _. e: H' b
Language : English6 {" w; s( k2 \
Service kind : Complete Main& x4 f" }% q! E+ ?* T
Default : No0 c2 b7 B- ~; ^% ^( c6 ^+ H
Forced : No
; B/ x  k5 ^) R4 L- D
+ j$ ]3 `% ~  x# v8 b
% d2 j1 }3 x$ n( ]6 Z! a0 a
Audio #3
3 l! m$ m* }, @1 \# G0 AID : 4$ ]& f; E# {# m/ Q
Format : AC-38 w% v. Q. n4 M" j' o! Q$ A
Format/Info : Audio Coding 3/ F3 C1 U+ K1 D
Commercial name : Dolby Digital! C5 }* f6 |& I0 M8 k( W' f" {
Codec ID : A_AC3* E) C8 z7 L: I/ p6 Z$ n
Duration : 1 h 37 min: s" [# {% e. H4 {4 |) u
Bit rate mode : Constant8 z) U( C5 i+ |
Bit rate : 192 kb/s
- ~( l9 X  j) A( }6 I' }+ M: ^+ gChannel(s) : 2 channels
" q- R# w1 [  e& L" VChannel layout : L R
+ T# U# _  _( g, HSampling rate : 48.0 kHz& d( {4 P& @2 f8 c
Frame rate : 31.250 FPS (1536 SPF)- ^1 v2 k: p$ e0 v
Compression mode : Lossy
$ X7 C3 {; f8 p$ \8 ^# J9 o- AStream size : 134 MiB (1%)- E5 l! t& m# V2 ~6 Y) g4 T* j
Title : Commentary by co-writers Karen Lutz and Kirsten Smith, and actors Andrew Keegan, David Krumholtz, Larisa Oleynik and Susan May Pratt
. R) Q: s5 k  ^7 Y& ILanguage : English1 ]4 X+ ]6 G* f
Service kind : Complete Main
2 W5 w- d0 z/ h3 kDefault : No
: P- A6 ^7 Q" X4 y2 Y9 ~Forced : No

( Z- U* ~. E/ P% ^+ W+ o
. s5 _9 ~0 l0 `/ ~# X9 `9 f) j蓝光高清网提示您  点击下方附件名称  马上开始下载
$ |8 `4 D% _/ a, p& W# w6 ]# l% b
" U' h8 N) U2 \$ s3 L
8 V; x+ g8 d1 \3 Y; }7 s' W' y: f
对面的恶女看过来 / 恋爱新世纪 / 十宗罪 / 十个我恨你的理由 / 我恨你的10件事 / 我最恨你的十件事情/我恨你的十件事4k 10.Things.I.Hate.About.You.1999.2160p.WEB-DL.x265.10bit.HDR.DTS-HD.MA.5.1-4k电影下载9 c! G* L% u1 {. T, k

) K% C" J! O- _7 y" R我恨你的十件事4k 10.Things.I.Hate.About.You.1999.2160p.WEB-DL.x265.10bit.HDR.DTS-HD.MA.5.1【13.87 GB】* C- d/ \) K" Q
我恨你的十件事4k 10.Things.I.Hate.About.You.1999.2160p.WEB-DL.x265.10bit..torrent (文件大小:18.02 KB)
加入蓝光高清网VIP会员  无限制下载本站所有资源---点这里

资源下载、资源播放、字幕使用、无法下载等常见问题---点这里
回复

使用道具 举报

您需要登录后才可以回帖 登录 | 立即注册

本版积分规则

烧友之家(蓝光高清网)本站内容部分由用户自主分享和转载自互联网,转载目的在于传递更多信息,并不代表本网赞同其观点和对其真实性负责。 如有侵权、违反国家法律政策行为,请联系我们,我们会第一时间及时清除和处理!
蓝光高清网 综合资讯平台
关注我们
  • 官方微信公众号
  • 扫码下载官方APP

X3.4 Licensed© 2001-2013 蓝光高清网 烧友之家APP |网站地图