游客您好
第三方账号登陆
  • 点击联系客服

    在线时间:9:00-18:00

    客服QQ

    1371333023

    电子邮件

    lanniao@1080pro.net
  • 烧友之家APP

    随时掌握烧友资讯

  • 扫描二维码

    关注微信公众号

推荐阅读
蓝鸟
未知星球 | 未知职业
  • 关注0
  • 粉丝2
  • 帖子95610
精选帖子
开启左侧

巴顿将军 4K Patton.1970.2160p.DSNP.WEB-DL.x265.10bit.HDR.DTS-HD.MA.5.1-4k电影下载—24.44 GB

[复制链接]
蓝鸟 发表于 2021-7-24 20:52:10 | 显示全部楼层 |阅读模式 打印 上一主题 下一主题
巴顿将军
上映时间:更早
类型:剧情 传记 战争 
地区:美国 
导演:富兰克林·沙夫纳
主演:乔治·C·斯科特 / 卡尔·莫尔登 / 斯蒂芬·杨 / 迈克尔·斯特朗 / 凯里·洛夫廷
画质标准:4K HDR  封装音轨:DTS-HD.MA 5.1 
豆瓣评分:8.2分

加入蓝光高清网,轻松下载最新4k资源

您需要 登录 才可以下载或查看,没有帐号?立即注册

x
简       介
  p  I6 \* }( v& r8 B/ m' u
, [0 @) e( S& F; F  U8 A  1943年3月,巴顿(乔治·C·斯科特 George C. Scott 饰)率美军在法属摩洛哥登陆后临危受命,担任美军在北非的第二军团长,性格强势、钟情古典文化又熟稔战史相信灵魂转世的巴顿很快用铁血律令扭转了北非部队的散漫风格,连番激战后与蒙哥马利统率的英军合力将“沙漠之狐”隆美尔赶出了北非。随后升任第7集团军司令的巴顿筹划占领西西里,战斗中巴顿抢在蒙哥马利之前连下军事重镇,立下赫赫战功的同时饱受非议,部下指责他用士兵的生命换取荣耀,在成功占领西西里后,巴顿因严厉训斥一位士兵遭到媒体的谴责,铁血将军只得公开道歉……然而长于战争的巴顿又迎来了新的重任…
+ S0 ~/ Z) {/ d/ O% ~3 T- B5 w0 j- o" T

% h' o) {/ |4 l/ D) `' ^& p. M! r影片参数
' x5 d3 r% X, ?
铁血将军巴顿 / Patton: A Salute to a Rebel / Patton: Lust for Glory/铁血将军巴顿 / Patton: A Salute to a Rebel / Patton: Lust for Glory/巴顿将军4K Patton.1970.2160p.DSNP.WEB-DL.x265.10bit.HDR.DTS-HD.MA.5.1-4k电影信息
$ Z+ u  g7 A4 p; CVideo* V: T: J5 `. p( }2 ?
ID : 1
/ X9 ]7 i& R/ J* U3 [3 M, R+ X+ K0 PFormat : HEVC
- r1 U9 U' x' S6 OFormat/Info : High Efficiency Video Coding
1 ?( ~( n, d: q+ |Format profile : Main 10@L5@High9 D( e) E" s. N% y* k6 T! q, g
HDR format : SMPTE ST 2086, HDR10 compatible
8 ^! p0 i5 {, |. g; L/ NCodec ID : V_MPEGH/ISO/HEVC
/ K+ @( q, ^% `+ h- lDuration : 2 h 51 min/ t+ W: c1 ?; \4 s) J
Bit rate : 16.2 Mb/s) E% @1 s7 e; C. e* @, @6 `
Width : 3 840 pixels
1 l2 \, D% V4 Q  w9 b% O- V9 rHeight : 2 160 pixels, I+ ~. }4 w) W- }# R4 q
Display aspect ratio : 16:9
3 E" j2 M5 \( C( W- T8 Z$ Z0 JFrame rate mode : Constant5 e! ]  q8 q6 j2 H, Y6 l5 b  A
Frame rate : 23.976 (24000/1001) FPS
, t& C/ f7 S# T, |/ EColor space : YUV/ N* J8 x. B- }9 U7 C
Chroma subsampling : 4:2:0& D1 V. M" @; B3 p$ P5 c# N, M; X
Bit depth : 10 bits, Z9 l' G* u# B  N) f! w2 n+ ]  i' s
Bits/(Pixel*Frame) : 0.081
2 P) L! @: r9 e4 Y5 _1 Q2 WStream size : 19.4 GiB (80%)% J+ n2 Q4 C6 q
Default : Yes" w* ~4 g& Z2 b9 l. a; d6 s% s
Forced : No
% q3 K- e" N  f  Z9 wColor range : Limited9 T' y- z2 f- e
Color primaries : BT.20201 X" u9 f) k/ a2 u+ ]
Transfer characteristics : PQ
5 G6 s4 e! i" s! x: Z8 ]2 P1 A( J9 TMatrix coefficients : BT.2020 non-constant. U- F( |, T+ q# t6 v
Mastering display color primaries : Display P36 w* M5 f/ v- P0 s% W
Mastering display luminance : min: 0.0050 cd/m2, max: 1000 cd/m2) d# \; Q) N9 {8 s( f1 _
5 W$ i+ a! n% h% F0 p, C) r( H  j
1 J5 r$ ?# G7 @. j
Audio #1
" c. t) Z2 I! r* qID : 2$ r* ~' f4 B% {, E
Format : DTS XLL1 a, g: z+ K+ ~3 X. [6 ~0 W
Format/Info : Digital Theater Systems
" g6 R# S# F, {Commercial name : DTS-HD Master Audio+ y! k5 D) x4 ^/ g3 _5 P
Codec ID : A_DTS
7 p' l1 Y6 `% ]9 ~- zDuration : 2 h 51 min+ \* l+ {  g! J3 f1 {
Bit rate mode : Variable
# T" T; G, k5 _! GBit rate : 3 826 kb/s; `" b% f0 m; ^8 ]
Channel(s) : 6 channels3 t. U& x# s0 m4 W% l: }# S
Channel layout : C L R Ls Rs LFE
- p- y. O' N4 A/ ~' D: _Sampling rate : 48.0 kHz9 m$ w. H. Q& d0 W, K- w
Frame rate : 93.750 FPS (512 SPF)
0 U/ }8 a" O9 N) hBit depth : 24 bits4 `+ J  _; [7 f" ^/ E7 ?
Compression mode : Lossless
5 U+ a$ S" i4 T0 q" {+ _" rStream size : 4.60 GiB (19%)
5 q& u: t, l0 F! i4 |( MTitle : DTS-HD MA 5.1* m& H+ a# h7 l# f6 Y+ @4 x( m
Language : English: T6 S) b' f) F5 M7 k- [
Default : Yes& j; _. d' q/ l! i. q
Forced : No, |* Y! v4 ?& ?

. ]) f8 V9 J" k2 z5 c1 O* I! g
. B% u; h0 c4 _4 v6 @8 ~* C
Audio #2
" _- G9 H1 B+ @! n/ X0 z+ b# ]ID : 3& E4 Z7 {' I# e( J
Format : E-AC-3
5 j5 h; @7 s4 C; e4 l/ lFormat/Info : Enhanced AC-3) `" R$ j4 i$ {3 Y3 i; t; Y
Commercial name : Dolby Digital Plus6 D' O; e& E2 W$ k
Codec ID : A_EAC3
. W# b* f; F- \: r$ E/ nDuration : 2 h 51 min
! y  C" c' T* w# r. b4 ~; WBit rate mode : Constant
* ?+ b# o# P* O' s8 ^8 E, l1 b, r! yBit rate : 256 kb/s
8 p5 x5 {/ J. s7 [5 jChannel(s) : 6 channels( f- Z0 N: {6 g, p/ ?6 e2 ?# M
Channel layout : L R C LFE Ls Rs
+ Y5 S7 v0 F* W2 X3 u! L$ RSampling rate : 48.0 kHz
3 x+ B* ^" N1 b* _# m5 H% N. UFrame rate : 31.250 FPS (1536 SPF)
( J' z" ]2 |. f, T, rBit depth : 32 bits
6 }4 i: a" b: V! t. L& o) RCompression mode : Lossy: C4 h* L& ^1 k
Stream size : 315 MiB (1%)
6 O2 N7 R& e& l1 CLanguage : English) F/ p8 J  I" h' T/ E" I1 ?% q
Service kind : Complete Main# W( |) {* B4 U1 V
Default : No
9 u6 ]% [0 r1 uForced : No

( t4 w$ x; P! E' a: j- d7 B& q0 p+ J) ]0 D. W
蓝光高清网提示您  点击下方附件名称  马上开始下载
7 u/ _% Z' N- |  c' W1 j
3 X1 O) K* {) H& d& h  @+ v

0 P- d/ d" ?0 _# c5 U9 c5 x铁血将军巴顿 / Patton: A Salute to a Rebel / Patton: Lust for Glory/铁血将军巴顿 / Patton: A Salute to a Rebel / Patton: Lust for Glory/巴顿将军4KPatton.1970.2160p.DSNP.WEB-DL.x265.10bit.HDR.DTS-HD.MA.5.1-4k电影下载
7 ?# l( i/ a, L2 t( i
7 t2 b) h, r3 ]7 I3 Z3 _巴顿将军4KPatton.1970.2160p.DSNP.WEB-DL.x265.10bit.HDR.DTS-HD.MA.5.1【24.44 GB】
4 o: H8 W9 \9 X; [ 巴顿将军4k Patton.1970.2160p.DSNP.WEB-DL.x265.10bit.HDR.DTS-HD.MA.5.1-SWT.torrent (文件大小:31.2 KB)
加入蓝光高清网VIP会员  无限制下载本站所有资源---点这里

资源下载、资源播放、字幕使用、无法下载等常见问题---点这里
回复

使用道具 举报

精彩评论2

猫爪下的钢琴手机认证 发表于 2021-8-7 22:59:22 | 显示全部楼层
很经典,下来看看!
回复 支持 反对

使用道具 举报

shvvvv手机认证 发表于 昨天 12:03 | 显示全部楼层
很经典,下来看看
回复 支持 反对

使用道具 举报

您需要登录后才可以回帖 登录 | 立即注册

本版积分规则

烧友之家(蓝光高清网)本站内容部分由用户自主分享和转载自互联网,转载目的在于传递更多信息,并不代表本网赞同其观点和对其真实性负责。 如有侵权、违反国家法律政策行为,请联系我们,我们会第一时间及时清除和处理!
蓝光高清网 综合资讯平台
关注我们
  • 官方微信公众号
  • 扫码下载官方APP

X3.4 Licensed© 2001-2013 蓝光高清网 烧友之家APP |网站地图