蓝光高清网

开启左侧

王国:北方的阿信 4k 킹덤:아신전 .2021.2160p.2160p.WEB-DL.DD5.1.DV.MP4.x265【2.1 GB】

  [复制链接]

2021-12-1 14:06:11 16485 6

蓝鸟 发表于 2021-7-25 21:48:15 |阅读模式

蓝鸟 楼主

2021-7-25 21:48:15

王国:北方的阿信
上映时间:2021年
类型:剧情 恐怖 古装 
地区:韩国 
导演:金成勋
主演:全智贤 / 朴秉恩 / 金诗雅 / 金雷夏 / 具乔焕
画质标准:4K HDR  封装音轨:Dolby TrueHD 5.1 
豆瓣评分:7.0分
本帖最后由 蓝鸟 于 2021-7-25 21:49 编辑 " z2 Z" O' ?4 R/ t' f9 D  I
, V. x% B8 o2 m' x7 T# I& x
简       介- H+ W/ `/ f3 p; f7 E- y" {3 g
+ `7 F: b5 v. M' l; S
  阿信和其父是定居于朝鲜王国的番邦异族。他们遇到了一种神秘疾病,这进而导致雅信走上了背叛、偏见和复仇的道路。
# N( U/ x/ @% }7 B
7 n1 W9 A0 Q* ^
9 x( e9 s% @$ a5 r0 |
影片参数
, M0 a" C! z; p
General- K8 j/ v# X4 P- g, X+ Z
Format                         : MPEG-4. G) a$ t" \) w! j2 ]
Format profile                 : Base Media- Z. o; y; n( x6 p3 \: e8 x% l4 C
Codec ID                       : isom (isom/iso2/avc1/mp41)
3 n+ D) I3 H& h) `8 l! o2 r( E* gFile size                      : 2.10 GiB
0 U  t  P; V3 F! NDuration                       : 1 h 33 min
- w- Z7 X& p. E6 J0 n, W3 P0 cOverall bit rate               : 3 196 kb/s
  t" B1 ]2 l8 y& r' w" y( Z4 YWriting application            : Lavf58.45.1006 `4 L6 X$ d/ R2 U$ E

: @+ f  x8 t) I3 B* a, k1 t- k: R% |' y( X
Video
. c$ Q7 N$ R3 X  VID                             : 1
" n4 g4 l8 N- i9 Q# mFormat                         : AVC
6 {2 l, e' z+ k  i7 P! e3 YFormat/Info                    : Advanced Video Codec
3 w7 N7 J( P1 f# \Format profile                 : High@L4' _. p5 j* \/ f8 Z. J8 Y
Format settings                : CABAC / 4 Ref Frames
/ U3 V+ C8 m; N2 v- E. J, TFormat settings, CABAC         : Yes7 r& J9 h* P" l* l( b$ g2 a# ]1 G  [
Format settings, Reference fra : 4 frames' u- M$ n9 N) y- e: Z7 V/ Z) F
Codec ID                       : avc1
9 D. X9 F/ r# q& A$ cCodec ID/Info                  : Advanced Video Coding  [" O- D) z$ r& m1 c/ x
Duration                       : 1 h 33 min
# F9 h' ^& {1 n3 G& h- s% jBit rate                       : 3 000 kb/s5 G" X) H8 S/ F* m! `. v* x
Width                          : 1 920 pixels4 N; c& P5 O4 D1 ^) a& q
Height                         : 1 080 pixels2 p% b: A3 T! w" ~
Display aspect ratio           : 16:9
( P  P8 h3 R! }, B& e" b& t: P8 H4 nFrame rate mode                : Constant; B# P) T/ ]. `4 \; i& Q
Frame rate                     : 23.976 (24000/1001) FPS
+ J" K# Q, J5 F3 I! U/ sColor space                    : YUV
$ t  g. |1 R& c( y, ZChroma subsampling             : 4:2:09 l! Y7 X- E' A& f3 ^
Bit depth                      : 8 bits
' m  `5 |, ?; J) {Scan type                      : Progressive9 Q. K. [6 O" t  f2 S, h0 M' |# d7 u
Bits/(Pixel*Frame)             : 0.060
. J) c! n0 [, E' {/ E9 bStream size                    : 1.97 GiB (94%)- k6 P" }8 B6 T) P
Writing library                : x264 core 160 r3011M cde9a93; _2 ]4 z) T; E5 L4 a
Encoding settings              : cabac=1 / ref=3 / deblock=1:0:0 / analyse=0x3:0x113 / me=hex / subme=7 / psy=1 / psy_rd=1.00:0.00 / mixed_ref=1 / me_range=16 / chroma_me=1 / trellis=1 / 8x8dct=1 / cqm=0 / deadzone=21,11 / fast_pskip=1 / chroma_qp_offset=-2 / threads=6 / lookahead_threads=1 / sliced_threads=0 / nr=0 / decimate=1 / interlaced=0 / bluray_compat=0 / constrained_intra=0 / bframes=3 / b_pyramid=2 / b_adapt=1 / b_bias=0 / direct=1 / weightb=1 / open_gop=0 / weightp=2 / keyint=250 / keyint_min=23 / scenecut=40 / intra_refresh=0 / rc_lookahead=40 / rc=2pass / mbtree=1 / bitrate=3000 / ratetol=1.0 / qcomp=0.60 / qpmin=0 / qpmax=69 / qpstep=4 / cplxblur=20.0 / qblur=0.5 / ip_ratio=1.40 / aq=1:1.00
! Y  w: h" G$ u8 L' a- y/ q# j! HCodec configuration box        : avcC
, Y) ^# K  n! d5 c2 n( ^; t8 a& T9 A3 p% o- i

7 O% A( T- {  p. e5 iAudio
4 B" G9 @3 e- M4 \. |. AID                             : 2
" q$ O, ~) N# c9 I1 n! U4 A' g# JFormat                         : AAC LC
2 t4 H" j3 @+ H8 v- F- kFormat/Info                    : Advanced Audio Codec Low Complexity
2 F. ~( _1 }% f9 ~% e! |Codec ID                       : mp4a-40-2
, _% q5 d- ]0 {+ ODuration                       : 1 h 33 min
8 @' L; P8 a" @7 uDuration_LastFrame             : -4 ms
0 L, S3 j2 ?; B  \0 Q2 {Bit rate mode                  : Constant
4 a3 f7 N% `* Q" T* t$ I0 Y$ QBit rate                       : 192 kb/s
+ k9 }2 g# V' L) nChannel(s)                     : 2 channels
+ i2 L; s/ _& ]5 Y6 p$ Y; v/ bChannel layout                 : L R
! s% c8 a3 a( v' G; ?Sampling rate                  : 48.0 kHz
" d! ^  o4 `1 c# U2 B1 _5 ]. `2 x  CFrame rate                     : 46.875 FPS (1024 SPF): o1 {# Z) x  }* l5 ^% b; T
Compression mode               : Lossy
3 E( Q2 w; ^9 S3 Z6 |4 J) f1 uStream size                    : 129 MiB (6%)
2 o: j  m& ]3 @# P+ oDefault                        : Yes
1 W2 D/ b: L& QAlternate group                : 1
8 M5 n% k1 e7 J9 D7 n5 p  v
100|imageslim 100|imageslim 100|imageslim 100|imageslim
" s, A& w9 P' K2 j( ]  Q4 Z2 a3 [: _2 g: K
蓝光高清网提示您  点击下方附件名称  马上开始下载
) Q) V7 E  T+ h0 i, W, j5 R( ^0 b  X
王国:北方的阿信 4k 킹덤:아신전 .2021.2160p.2160p.WEB-DL.DD5.1.DV.MP4.x265- 电影下载

) f4 ]- v( c% x: Q
8 N  b) x' C+ f+ j2 N: L王国:北方的阿信 4k 킹덤:아신전 .2021.2160p.2160p.WEB-DL.DD5.1.DV.MP4.x265-【15.6GB】! k- f; R9 L$ \* Q% w, ~7 R
资源准备中······
1 Z# _/ m8 t9 y3 c! _6 W0 s
7 X1 i- S& m$ z
1080p高清版本下载/ j- J6 v9 l# Y3 Y6 y, K$ e
王国:北方的阿信 킹덤:아신전 1080p.mp4-ACC2.0 -2.1GB (自带中文字幕)

+ P' ^% ]4 a5 N, j. Thttps://www.1080pro.net/thread-103124-1-1.html: d/ m5 |8 a5 G: h, S: \
加入蓝光高清网VIP会员  无限制下载本站所有资源---点这里

资源下载、资源播放、字幕使用、无法下载等常见问题---点这里
回复

使用道具 举报

全部回复6

ggang1 发表于 2021-7-26 12:09:02

ggang1 沙发

2021-7-26 12:09:02

  W" \2 ?7 q* d2 C
谢谢楼主,辛苦了!
回复 支持 反对

使用道具 举报

进泉手机认证 发表于 2021-7-30 20:50:58

进泉 板凳

2021-7-30 20:50:58

非常感谢楼主的分享,等了好久啦
7 ?2 z4 Q; k7 E8 A* q1 X' T
回复 支持 反对

使用道具 举报

淰XPHC手机认证 发表于 2021-7-31 16:53:49

淰XPHC 地板

2021-7-31 16:53:49

没有4k为什么放在4k专区
回复 支持 反对

使用道具 举报

河南玄手机认证 发表于 2021-8-1 15:57:12

河南玄 5#

2021-8-1 15:57:12

谢谢分享精彩的电影- P2 R2 m$ Q4 @, X
回复 支持 反对

使用道具 举报

StephenHitch手机认证 发表于 2021-8-19 11:25:24

StephenHitch 6#

2021-8-19 11:25:24

感谢楼主分享。4K版本啥时候能上啊?
回复 支持 反对

使用道具 举报

lagloire手机认证 发表于 2021-12-1 14:06:11

lagloire 7#

2021-12-1 14:06:11

yyyyyyyyyyyyyyyyyyyy
回复 支持 反对

使用道具 举报

发表回复

您需要登录后才可以回帖 登录 | 立即注册

返回列表 本版积分规则

  • 发帖

  • 在线客服

  • 微信

  • 客户端

  • 返回顶部