游客您好
第三方账号登陆
  • 客服在线时间

    周一至周五 8:30-17:30
  • 烧友之家APP

    随时掌握烧友资讯

  • 扫描二维码

    关注微信公众号

推荐阅读
蓝鸟
未知星球 | 未知职业
  • 关注0
  • 粉丝2
  • 帖子96539
精选帖子
开启左侧

后天4K The.Day.After.Tomorrow.2004.2160p.WEB-DL.x265.10bit.HDR.DTS-HD.MA.5.1-4k电影下载—18.81 GB

[复制链接]
蓝鸟 发表于 2021-7-27 21:12:07 | 显示全部楼层 |阅读模式 打印 上一主题 下一主题
后天
上映时间:2004年
类型:科幻 灾难 
地区:美国 
导演:罗兰·艾默里奇
主演:丹尼斯·奎德 / 杰克·吉伦哈尔 / 埃米·罗森 / 达什·米霍克 / 杰伊·桑德斯
画质标准:4K HDR  封装音轨:DTS-HD.MA 5.1 
豆瓣评分:8.3分
简       介1 G  p. [  W8 \$ c0 j
: N6 U# e) y' I
  美国气候学家杰克(丹尼斯•奎德 Dennis Quaid 饰)认为,温室效应正在引发地球的大灾难,北极冰川的融化,会让地球回到冰河世纪那样的劫难。他的提醒并没有引起美国当局的重视,一切都已经太晚:飓风、冰雹、洪水、冰山融化、极度严寒,一系列的地球巨变引发了一场不可挽救的灾难。美国政府组织北纬30度的民众转移到赤道周围,场面一片混乱。更糟糕的是,杰克的儿子,正困在曼哈顿的图书馆里,靠烧书生火来维持体温。大家怎样才能逃过这场灭顶的灾祸?冰天雪地的地球何时才能回暖? / W" m$ D6 W; S
4 l1 t9 @* ~- C. ~; d9 Q
! W9 [  g! P' t
影片参数! V/ E7 o+ I4 s# P
明日之后(港) / 明日过后(台) / 末日浩劫 / 末日世界/后天4K The.Day.After.Tomorrow.2004.2160p.WEB-DL.x265.10bit.HDR.DTS-HD.MA.5.1-4k电影信息
/ o, w: u7 N9 ~8 e0 m9 R+ DVideo4 P8 T% C9 n; A6 u1 r& _5 ^
ID : 1
% R( k5 n' ~4 ?+ LFormat : HEVC
- H# E. w( k  }6 Y( i$ J) |Format/Info : High Efficiency Video Coding
4 n$ [, C/ L' J- }* `. b) |Format profile : Main 10@L5@High
; n8 r( ?/ A" X# V0 [+ ZHDR format : SMPTE ST 2086, HDR10 compatible
9 a1 I6 b( k! KCodec ID : V_MPEGH/ISO/HEVC6 J& t- f6 G; ^0 P0 G9 i$ ]5 e
Duration : 2 h 3 min6 N% s, C6 H- a- K5 T, P, r# X" @
Bit rate : 16.5 Mb/s6 [3 m8 E$ Q4 p- G- C: G+ V
Width : 3 840 pixels
; P3 F3 S0 f, bHeight : 2 160 pixels/ Q/ D0 Y2 r$ w9 }" {/ C
Display aspect ratio : 16:9
( ]1 c7 T1 [, u' mFrame rate mode : Constant
5 |1 x9 j. q- R, g$ ?Frame rate : 23.976 (24000/1001) FPS- [1 {+ c* ?* k/ B7 w
Color space : YUV2 ~( G' b( a; ?/ X) ^4 `5 o
Chroma subsampling : 4:2:0
7 W! v! D! ~. [1 P7 dBit depth : 10 bits
( z, ^/ ^7 O' a7 f. i, SBits/(Pixel*Frame) : 0.0830 k/ |6 V. `7 h
Stream size : 14.2 GiB (76%)
* [# i0 L5 M. u8 N. ^. I4 PLanguage : English
% \7 W) {- W6 d$ a* a$ D7 EDefault : Yes
9 a3 [3 Y9 l1 ~/ V5 J' W" Q9 ~; aForced : No
9 E" z) m0 l8 E" Q7 M7 dColor range : Limited# \) ~5 e% X9 U! k! a/ Y6 L1 t3 E
Color primaries : BT.2020
0 s" L; g7 L9 P6 y- t/ W6 z* U  lTransfer characteristics : PQ
" Q* S" V, A0 h8 BMatrix coefficients : BT.2020 non-constant
* ^- z5 a) D3 ?9 T$ MMastering display color primaries : Display P3
# [$ }" z% }. GMastering display luminance : min: 0.0050 cd/m2, max: 1000 cd/m2
' d$ y2 B4 C  w+ U( ~" ~
, i/ Q3 J- L" G4 d
6 h6 `0 M" f! J# [) J9 G) O8 [6 N& f
Audio #10 N2 }2 i; Z% u8 k" g
ID : 25 F; Q# V+ M4 k  v, m5 Q
Format : DTS XLL
$ }( Q( a! Y8 r9 W; n5 R( T& FFormat/Info : Digital Theater Systems# G( w3 [7 B" \0 ^
Commercial name : DTS-HD Master Audio
1 ]' B; ~" G4 u% z0 x$ wCodec ID : A_DTS4 y9 R; S# j' ]1 h  K: L
Duration : 2 h 3 min6 G3 D9 Q( }$ h! ~, l  j; M
Bit rate mode : Variable3 K* g% {1 Y- x5 c8 d: L& _
Bit rate : 4 169 kb/s" M3 @0 T; M4 u
Channel(s) : 6 channels
& S/ z) x8 }: t# d0 CChannel layout : C L R Ls Rs LFE  c+ F3 {- _1 k  w
Sampling rate : 48.0 kHz, f- O" p4 M1 ?
Frame rate : 93.750 FPS (512 SPF)! J0 R8 i! A6 j3 S- J
Bit depth : 24 bits
: o  L: `* Z' `- A0 sCompression mode : Lossless
% m; c3 ]% S- G$ ^5 V$ tStream size : 3.60 GiB (19%)
3 p1 r1 ?% Y& RTitle : DTS-HD MA 5.1
( t/ q' a$ @# `Language : English
2 R; H  ]6 i6 m, \( Q" wDefault : Yes! g4 Y  J6 K' u5 I8 H: R/ Y
Forced : No
- a1 }5 M* [* R# G/ W
0 p8 I1 ~; p" a6 r0 ^
/ G9 R8 |7 Z- B# c. _9 @: ^' F6 D
Audio #2
2 h  A4 n4 m" C8 B8 T' f/ ZID : 3; [, v' q6 V: E* v
Format : AC-3" Y1 f* j0 |$ O
Format/Info : Audio Coding 3
- k3 S1 [2 {7 {5 \' d6 |Commercial name : Dolby Digital7 @- q) h0 j7 @" S* C
Codec ID : A_AC3
+ L5 a7 [7 B: i, pDuration : 2 h 3 min% h$ s3 x# J9 I/ p
Bit rate mode : Constant$ M! D  y0 b* G  W  }* f8 T
Bit rate : 640 kb/s- t7 i- [, W% n' W9 @. _
Channel(s) : 6 channels
7 g* S1 j! a+ u% ?, @! |- yChannel layout : L R C LFE Ls Rs
- z3 ?7 s& {! m" [" o5 I; q  QSampling rate : 48.0 kHz; U, s" y, c- ^/ c' f$ ^
Frame rate : 31.250 FPS (1536 SPF)
! \- M1 P6 ~5 B( `4 g5 P1 t# u# UCompression mode : Lossy' i% l- E; u7 W; H
Stream size : 566 MiB (3%)& z2 J6 p# u/ x0 j0 F% b" d
Title : DD 5.1
7 e2 @6 X% e  H# bLanguage : English
; O& [5 |: r0 F* j1 RService kind : Complete Main. K% [1 [1 M2 b  T7 C
Default : No+ x: l3 f# c* G! P& ^  {2 m3 s4 Y
Forced : No
$ x1 `6 f, q: W$ i' i6 ]
7 J  M+ H* Y! x' j( `! \

  t  _% r, I' m4 y4 jAudio #3
. I3 e4 }% [3 i# x5 \8 b" rID : 4- [" A( D3 ~) g, ?! I7 S2 r
Format : AC-3
  u; p! o  k# gFormat/Info : Audio Coding 3
( R: j# h) |5 [) p- ^, pCommercial name : Dolby Digital8 V- C1 K( y) ^' ^8 |% t
Codec ID : A_AC3
& S/ Y% i1 c, D0 [& wDuration : 2 h 3 min2 ~' \: A+ {. _9 i9 b. h3 l
Bit rate mode : Constant
: ]) L8 x7 L4 e' x# HBit rate : 224 kb/s
9 T+ z; r; ]. V! s- w+ UChannel(s) : 2 channels+ s- F# w! ?, {; n% `- A! F) c
Channel layout : L R# [3 C; x5 v& c6 Z
Sampling rate : 48.0 kHz5 b, i5 U' R0 g4 t6 s5 Q
Frame rate : 31.250 FPS (1536 SPF)% j& k! h6 I* S
Compression mode : Lossy
+ x0 D+ Y/ W" y8 I$ sStream size : 198 MiB (1%)
4 S8 T4 F7 g% Z. Z/ ]0 V7 `Title : Commentary by director /co-writer Roland Emmerich and producer Mark Gordon
$ Q$ Q1 {2 i3 Y: X; _: qLanguage : English; M, M7 _4 K* ]+ D4 i6 ^, t
Service kind : Complete Main
: P* y/ @( {2 [$ ADefault : No0 `, P* U4 c1 J
Forced : No
2 d7 D0 v* S, R( T9 u7 g) P7 z, t5 |$ Q9 l

2 C5 c( Z6 C* w- H; WAudio #4! x6 e- V3 _1 Q  A/ X  q3 H; [/ @' ?
ID : 5
' e5 M9 X6 L" n* WFormat : AC-3
8 Z1 }: w5 J: f/ KFormat/Info : Audio Coding 3
7 N" _$ }) `; c0 w0 d* W( o4 PCommercial name : Dolby Digital; x- g5 n# F$ k1 z% w3 e, n/ W
Codec ID : A_AC3* V5 C/ z- Y! U9 A3 U% n1 m  Z
Duration : 2 h 3 min9 _$ c) F2 w  \* O3 O- M
Bit rate mode : Constant
# I7 e0 g7 A  f  J& @% }; L% WBit rate : 224 kb/s
8 ~3 i/ U+ f8 JChannel(s) : 2 channels8 E' ^% T; D! z  D7 R
Channel layout : L R6 s7 F. n1 k0 V; |4 C+ O" ~
Sampling rate : 48.0 kHz
/ I+ S+ `4 y( _Frame rate : 31.250 FPS (1536 SPF). o! |1 v# P$ w& \9 }" a9 f
Compression mode : Lossy0 v9 T+ S1 g, h# V7 g
Stream size : 198 MiB (1%)* H, i% T" Z4 ?" P
Title : Commentary by co-writer Jeffrey Nachmanoff, cinematographer Ueli Steiger, editor David Brenner and production designer Barry Chusid/ n9 d% N- T, A& e+ ]* E
Language : English$ O& ^3 b% l- S) q" H. J) i
Service kind : Complete Main
% u& [# m* z6 t5 J* \. o% UDefault : No
  }5 T" L4 y" y1 x0 E- t, AForced : No

* F# s" u. c7 W( E3 S+ E# w- i" H) X
蓝光高清网提示您  点击下方附件名称  马上开始下载* a+ \, T  O8 W5 X
: E$ r( Q. \( l$ D: e& z

/ g/ `# J% ?, [" w. J" E5 D0 j明日之后(港) / 明日过后(台) / 末日浩劫 / 末日世界/后天4K The.Day.After.Tomorrow.2004.2160p.WEB-DL.x265.10bit.HDR.DTS-HD.MA.5.1-4k电影下载
2 N: T1 q0 q3 c: F7 N% m% q3 _/ Z, J) O" R3 D
后天4K The.Day.After.Tomorrow.2004.2160p.WEB-DL.x265.10bit.HDR.DTS-HD.MA.5.1【18.81 GB】
- f( o2 n$ R: ?  Z9 q. Q$ X, L( j 后天4k The.Day.After.Tomorrow.2004.2160p.WEB-DL.x265.10bit.HDR.DTS-HD.MA..torrent (大小:24.18 KB)
  a) J+ S# `3 h) W; w% z4 B" q1 Y4 x( u$ ?  U- R
后天 4k电影中文字幕下载
/ P8 B7 q2 G% b+ G# c$ }% K 后天[6.4]The.Day.After.Tomorrow.2004.1080p.BluRay.H264.AAC-RARBG_YY.rar (大小:211.73 KB) ; X+ G5 L! T' i. w9 t
! c* s2 e) V1 n" v: c# a4 T1 h( p
加入蓝光高清网VIP会员  无限制下载本站所有资源---点这里

资源下载、资源播放、字幕使用、无法下载等常见问题---点这里
回复

使用道具 举报

精彩评论6

石安 发表于 2021-8-10 01:18:44 | 显示全部楼层
哇文件够大的,网速确实要升级了
回复 支持 反对

使用道具 举报

ggang1 发表于 2021-8-10 09:49:56 | 显示全部楼层
谢谢楼主分享
回复 支持 反对

使用道具 举报

一休哥_MGWG 发表于 2021-10-19 16:20:05 | 显示全部楼层
谢谢楼主分享
回复 支持 反对

使用道具 举报

一休哥_MGWG 发表于 2021-10-19 16:20:15 | 显示全部楼层
谢谢楼主分享
4 w5 w  o$ f' E( m+ W" L
回复 支持 反对

使用道具 举报

qhwen 发表于 2021-11-12 15:27:44 | 显示全部楼层
谢谢楼主分享
回复 支持 反对

使用道具 举报

您需要登录后才可以回帖 登录 | 立即注册

本版积分规则

烧友之家(蓝光高清网)本站内容部分由用户自主分享和转载自互联网,转载目的在于传递更多信息,并不代表本网赞同其观点和对其真实性负责。 如有侵权、违反国家法律政策行为,请联系我们,我们会第一时间及时清除和处理!
关注我们
  • 官方微信公众号
  • 扫码下载官方APP

X3.4 Licensed© 2001-2013 蓝光高清网 烧友之家APP |网站地图