游客您好
第三方账号登陆
  • 点击联系客服

    在线时间:9:00-18:00

    客服QQ

    1371333023

    电子邮件

    lanniao@1080pro.net
  • 烧友之家APP

    随时掌握烧友资讯

  • 扫描二维码

    关注微信公众号

推荐阅读
蓝鸟
未知星球 | 未知职业
  • 关注0
  • 粉丝2
  • 帖子95500
精选帖子
开启左侧

金钱怪兽 4k Money.Monster.2016.2160p.BCORE.WEB-DL.x265.10bit.HDR.DTS-HD.MA.5.1-4k电影下载—52.24 GB

[复制链接]
蓝鸟 发表于 2021-7-27 21:20:04 | 显示全部楼层 |阅读模式 打印 上一主题 下一主题
金钱怪兽
上映时间:2016年
类型:剧情 惊悚 犯罪 
地区:美国 
导演:朱迪·福斯特
主演:乔治·克鲁尼 / 朱莉娅·罗伯茨 / 杰克·奥康奈尔 / 多米尼克·韦斯特 / 凯特瑞娜·巴尔夫
画质标准:4K HDR  封装音轨:DTS-HD.MA 5.1 
豆瓣评分:6.8分

加入蓝光高清网,轻松下载最新4k资源

您需要 登录 才可以下载或查看,没有帐号?立即注册

x
简       介
% X& q" D% P5 M2 ^& c
& l. ~% ]9 C0 J( p6 @  知名电视财经专家李·盖茨(乔治·克鲁尼 George Clooney 饰)在电视财经节目《金钱怪兽》中担任主持人而声名大噪,在节目中经常出现疯狂举动,会大声说出投资建议,不时在节目中用搞笑的道具和音效介绍股市。然而,事实上他是透过内线消息让他在华尔街成为赚钱高手。一名不速之客(杰克·奥康奈尔 Jack O'Connell 饰),因为听信投资分析而赔光积蓄,因此在节目直播中绑架了盖茨与节目制作人帕蒂·芬恩(朱莉娅·罗伯茨 Julia Roberts 饰)。同时全国民众也透过电视在看着这场玩命直播,而这场挟持行动也揭发了背后更巨大的金融操弄丑闻。
; a5 o. H& S4 w6 v/ ^. O/ n9 S: _# w& {
# V8 K$ ]1 W' b7 w1 L
影片参数$ y% z1 h6 P' A& p
凶钱直击(港) / 华尔街绑架直击(港) / 金钱怪兽(台) / 钱兽/金钱怪兽4k Money.Monster.2016.2160p.BCORE.WEB-DL.x265.10bit.HDR.DTS-HD.MA.5.1-4k电影信息  h, X0 s. u& D5 |8 O3 R3 |2 m
Video( p: q) E8 I$ k! t" Q$ X- |1 i
ID : 16 C1 O; h- R; j1 X* z; I" l
Format : HEVC
# `$ p, Z/ [' S# g% ^Format/Info : High Efficiency Video Coding
4 g; L" e4 P1 M5 ]( ?7 p; V3 wFormat profile : Main 10@L5.2@High" x. k" ^7 w3 ^; s
HDR format : SMPTE ST 2086, HDR10 compatible
, L7 B0 H, j7 n8 k7 [Codec ID : V_MPEGH/ISO/HEVC* T1 k: V( F/ [+ q( y7 z( @/ G
Duration : 1 h 38 min
4 W3 r3 a6 \3 k% }9 jBit rate : 72.1 Mb/s
$ n$ E5 z7 U* R% ~Width : 3 840 pixels( M& S; k  w7 I/ e
Height : 2 160 pixels/ i  e8 u! n" D. w6 g8 k* t, {
Display aspect ratio : 16:9
8 |5 f/ ]/ S4 d8 p3 U1 WFrame rate mode : Constant9 }8 a3 S- H  t& S( s
Frame rate : 23.976 (24000/1001) FPS
) I2 U8 F/ r) O1 K+ H$ @8 P1 JColor space : YUV' w- {$ p( L1 k3 T% J2 E
Chroma subsampling : 4:2:0 (Type 2)2 N1 i; c) Q7 O9 G. S9 h5 A
Bit depth : 10 bits; G  j7 K- J2 l# a: F& y* n6 t
Bits/(Pixel*Frame) : 0.3639 k3 D: F# X7 L; E, c" n9 b5 D
Stream size : 49.7 GiB (95%)
. R/ W& n& d* R8 w2 ALanguage : English' x* }4 K" m7 \) ?4 }2 `- Y
Default : Yes
/ A- W6 d0 B1 v) ]* U+ pForced : No
9 h; t. O+ ?6 H2 ?- v$ YColor range : Limited
8 ]9 D* t/ ?; PColor primaries : BT.2020! k/ Q$ I9 @" ]* t
Transfer characteristics : PQ
+ j( I0 Z$ x6 A) y5 FMatrix coefficients : BT.2020 non-constant
9 [* N: o6 H7 E* K7 cMastering display color primaries : Display P3
5 N' q8 I0 H4 N# h" w9 GMastering display luminance : min: 0.0050 cd/m2, max: 4000 cd/m2
+ h2 K( x' |9 [; }/ X* j1 l- FMaximum Content Light Level : 3043 cd/m2
) F/ d2 Z. Q4 V+ G3 nMaximum Frame-Average Light Level : 341 cd/m2
  _1 F5 E7 o) k# ~# e
* a: e- N: W% U* r% J6 b

, ^* f, y! a. ?) q3 a3 _' ZAudio #1
2 O: {- _* ?0 ~ID : 2
5 r' z9 R! S# L/ j1 t5 l8 lFormat : DTS XLL' I  W% K8 n& k& k
Format/Info : Digital Theater Systems. o8 A3 Z" c, W0 o
Commercial name : DTS-HD Master Audio
2 O4 m) M, ^4 W& ]0 `' m( |) lCodec ID : A_DTS# @$ h5 g; Z( J) p+ j
Duration : 1 h 38 min
% k% G; Q  r% `& g; P; @- `4 e: TBit rate mode : Variable
$ p8 i8 x1 V2 W. u6 J. }Bit rate : 2 105 kb/s
4 |2 p! c& E' u' r  q7 Z" UChannel(s) : 6 channels
# Y( @2 ~$ h& Z7 S$ @Channel layout : C L R Ls Rs LFE2 z$ J4 \4 ]) B/ E0 R8 ^% P0 z
Sampling rate : 48.0 kHz4 I! c! z, w8 x/ R
Frame rate : 93.750 FPS (512 SPF)
2 s( D5 P) i1 D/ hBit depth : 16 bits
4 I- v) ]; C: a6 }7 l. GCompression mode : Lossless+ N2 I( t9 C5 V7 M# j8 Q: F2 |
Delay relative to video : 1 s 0 ms  ?- e* m6 C5 ^, n
Stream size : 1.45 GiB (3%)
, l: K% S0 d* d& x" rTitle : DTS-HD MA 5.1
: N' a* [2 x. D, b: aLanguage : English+ u% c6 Z# @" C' X
Default : Yes
- J4 r; [; K( {, z1 ?" H0 QForced : No' S* q( w/ z1 S2 }# C: a
4 h7 c, P3 i2 s# T+ s. P3 Q

, Z5 P0 O4 @1 F. Z4 V% G2 L6 yAudio #2
& h0 [7 j# C$ @  M7 fID : 3% r5 m% w4 ~0 ~0 _* R4 l" p
Format : AC-3
" S) l, T- J: Z% jFormat/Info : Audio Coding 3
* n1 y3 N% W8 D/ qCommercial name : Dolby Digital: A# b$ P( B, ]+ ?1 d* B4 }0 E
Codec ID : A_AC3
: ]& t/ X% Z$ |, q' h1 rDuration : 1 h 38 min
9 z2 e& N% v2 t/ ~  eBit rate mode : Constant
" ^+ `" h' o5 a" ZBit rate : 640 kb/s# X) L! z& [5 B
Channel(s) : 6 channels
0 m( b  Y/ ~$ r9 MChannel layout : L R C LFE Ls Rs+ r" I! M$ g/ ~. U' R, {
Sampling rate : 48.0 kHz
+ H6 q# `) z* l; D+ q2 ]& \Frame rate : 31.250 FPS (1536 SPF)8 R$ r& ?3 v: }& g) P
Compression mode : Lossy8 e2 G; ~. ]4 R7 l3 T$ D: {; G; {
Stream size : 452 MiB (1%)4 H9 U. V) a' p4 ?+ m6 p  b4 l, U% q
Title : DD 5.1% v7 |6 b  Z" t) r
Language : English( v; e& ^! G$ x2 m$ L6 y. d4 ?
Service kind : Complete Main/ b4 w4 l0 E+ p% j; r7 ^/ [4 z; y* [2 ~
Default : No
' `$ T6 h* F& c/ Z& J0 N. e# j; cForced : No! I" p/ z" ~, N" Z; L/ C4 z
  M$ h. W6 u* ?0 P( G& x: A. R! D' \1 f

- M6 c' X9 J  g  V7 j* e" vAudio #3/ p) y+ o3 I) h2 S' J3 f' e
ID : 4  P* l5 p( m6 t$ p' r) o
Format : DTS: i5 G0 x2 ~1 W- v" y3 E
Format/Info : Digital Theater Systems" p9 a4 t' i. C! o) L
Codec ID : A_DTS& ?! v% Q, `( z/ t5 y6 m
Duration : 1 h 38 min
8 r. f  p$ x8 C4 }2 a% e  jBit rate mode : Constant& q9 l, O4 h5 d+ p, }
Bit rate : 768 kb/s, w5 @' R+ v5 Z
Channel(s) : 6 channels
, `& B1 N6 J) {0 ZChannel layout : C L R Ls Rs LFE
$ W( }  `' \7 b$ w6 {/ bSampling rate : 48.0 kHz8 t' I! s  }, h9 ^
Frame rate : 93.750 FPS (512 SPF)
  |( k) H8 ^1 P: V. EBit depth : 24 bits7 I3 E. {' \# C6 a
Compression mode : Lossy
' s. D/ `9 Q0 A: U: iStream size : 542 MiB (1%)% e% Z# n  X) x. w0 x
Title : DTS 5.1: M* P& _) b" A( F3 h
Language : English
, i9 J% k- D, n: w6 A4 XDefault : No% ?. I) g3 M+ @- a9 ^
Forced : No
0 u) e8 s+ y( Z9 ?
" S2 H% e7 M4 W. T
蓝光高清网提示您  点击下方附件名称  马上开始下载
1 M* f  e. ]* q* D2 [! t
! V0 |; [  \' ?4 ^$ N* ^

/ P' A& W) h; a2 F/ W凶钱直击(港) / 华尔街绑架直击(港) / 金钱怪兽(台) / 钱兽/金钱怪兽4k Money.Monster.2016.2160p.BCORE.WEB-DL.x265.10bit.HDR.DTS-HD.MA.5.1-4k电影下载0 b5 x& G3 `5 _
% s* @: \1 `, d3 A& m, t: ~
金钱怪兽4k Money.Monster.2016.2160p.BCORE.WEB-DL.x265.10bit.HDR.DTS-HD.MA.5.1【52.24 GB】
6 ]; f3 v* j% P! k" }6 M 金钱怪兽4K Money.Monster.2016.2160p.BCORE.WEB-DL.x265.10bit.HDR.DTS-HD.MA.torrent (文件大小:65.98 KB)
加入蓝光高清网VIP会员  无限制下载本站所有资源---点这里

资源下载、资源播放、字幕使用、无法下载等常见问题---点这里
回复

使用道具 举报

您需要登录后才可以回帖 登录 | 立即注册

本版积分规则

烧友之家(蓝光高清网)本站内容部分由用户自主分享和转载自互联网,转载目的在于传递更多信息,并不代表本网赞同其观点和对其真实性负责。 如有侵权、违反国家法律政策行为,请联系我们,我们会第一时间及时清除和处理!
蓝光高清网 综合资讯平台
关注我们
  • 官方微信公众号
  • 扫码下载官方APP

X3.4 Licensed© 2001-2013 蓝光高清网 烧友之家APP |网站地图