游客您好
第三方账号登陆
  • 点击联系客服

    在线时间:9:00-18:00

    客服QQ

    1371333023

    电子邮件

    lanniao@1080pro.net
  • 烧友之家APP

    随时掌握烧友资讯

  • 扫描二维码

    关注微信公众号

推荐阅读
蓝鸟
未知星球 | 未知职业
  • 关注0
  • 粉丝2
  • 帖子95610
精选帖子
开启左侧

不死劫 4k Unbreakable.2000.2160p.DSNP.WEB-DL.x265.10bit.HDR.DTS-HD.MA.5.1-4k电影下载—14.49 GB

[复制链接]
蓝鸟 发表于 2021-8-1 09:56:51 | 显示全部楼层 |阅读模式 打印 上一主题 下一主题
不死劫
上映时间:2000年
类型:惊悚 犯罪 悬疑 
地区:美国 
导演:M·奈特·沙马兰
主演:布鲁斯·威利斯 / 塞缪尔·杰克逊 / 罗宾·怀特 / 斯宾塞·崔特·克拉克 / 查莱宁·伍德拉德
画质标准:4K HDR  封装音轨:DTS-HD.MA 5.1 
豆瓣评分:6.8分

加入蓝光高清网,轻松下载最新4k资源

您需要 登录 才可以下载或查看,没有帐号?立即注册

x
简       介$ Q9 r. [6 b! j" {8 q& O

8 _' e1 i- V" Y, Y& Q4 y3 ]$ }
+ ]$ T9 c, g1 C8 `) t
  一场火车对撞的惨剧夺去131名乘客的性命,大卫•杜恩(Bruce Willis 布鲁斯•威利斯 饰)奇迹般地成为这场灾难过后的唯一幸存者,且浑身上下毫发无伤。在他参加遇难者追悼会之后,他在车窗上发现一张神秘便条,写道:“你这一生生过几次病?”
* B$ g/ i2 ~3 l* l( X, j+ Z  不久,一个名叫伊利亚•普莱斯(Samuel L. Jackson 塞缪尔•杰克逊 饰)的黑人出现在大卫面前。和大卫不同的是,伊利亚天生手脚残废,脆弱不堪。喜爱漫画的伊利亚认定大卫就是书中那种具有超自然能力的超人。懵懂的大卫开始在伊利亚的引导下认识自身的能力……
# [0 _8 a# B' ^9 x1 c+ o  W' ^$ @

4 f/ Z; \, [9 }( `, ~# u' D  Y

9 L2 G' c: F& I- Q影片参数
$ O* B- c6 W- {, Y, w5 k  D" z
惊心动魄(台) / 生死劫/不死劫4k Unbreakable.2000.2160p.DSNP.WEB-DL.x265.10bit.HDR.DTS-HD.MA.5.1-4k电影信息9 `0 B, o) ~. Q. U7 E
Video
7 }$ C9 i4 |8 a0 X) e" dID : 1
( V- m; |) e1 e$ m' D9 [# hFormat : HEVC- P4 c) M, Y. }/ M
Format/Info : High Efficiency Video Coding
9 m- C! a; i( `( U- D' iFormat profile : Main 10@L5@High
( D" d: x4 v5 U1 j* dHDR format : SMPTE ST 2086, HDR10 compatible3 d, h0 x' i3 V) b
Codec ID : V_MPEGH/ISO/HEVC
, l% I- ~( j: |" w; W: gDuration : 1 h 46 min( B  }) w$ l6 m, ~6 ?
Bit rate : 16.5 Mb/s) T5 l2 d, j/ S! {% c- y" n
Width : 3 840 pixels# O- @% ~# Z0 [+ P9 O
Height : 2 160 pixels
. j* a; o; r' C4 ]6 |9 e+ MDisplay aspect ratio : 16:9
3 X- l! L3 c. a6 c6 j/ KFrame rate mode : Constant
" E% x3 V" l. o7 I+ O, OFrame rate : 23.976 (24000/1001) FPS
- N; ?! _, Y' J9 K9 P* LColor space : YUV, x* E' \/ V/ g/ O! J4 h& [
Chroma subsampling : 4:2:0
% b$ u9 z/ P7 ]# Z7 c5 eBit depth : 10 bits
' \8 `% {& S+ x) ?, sBits/(Pixel*Frame) : 0.083
9 P" k' {; m/ Y: I  TStream size : 12.3 GiB (85%)9 T/ F: i/ B; S$ W. ~5 V
Default : Yes
" F  C$ r4 f" f$ [, Z- |1 y+ x( ]Forced : No
# `* Z  W5 e- I. j4 S8 f2 ^Color range : Limited
) X5 z9 p) u2 k6 G  q( C3 oColor primaries : BT.2020- s- B% w) X% R* j6 t
Transfer characteristics : PQ# F+ X# H7 G9 m) N+ j# a
Matrix coefficients : BT.2020 non-constant4 L7 @8 X2 F& Q, r" I, _
Mastering display color primaries : Display P3
, a, W6 l9 d+ k5 L) _1 ~Mastering display luminance : min: 0.0001 cd/m2, max: 1000 cd/m2
5 K, ]  w2 N" J
; x7 I6 z+ {; O- n& C" `! C# w

+ |4 r0 L7 I6 F! [Audio #1
+ |! [" Y6 ^/ g& P& N5 HID : 2
; g. ~0 j$ n' v: O  @  jFormat : DTS XLL, ?2 u; r1 @; Z3 @3 j
Format/Info : Digital Theater Systems- U! E; s8 ~* a! {4 m' |" O
Commercial name : DTS-HD Master Audio. {7 C$ K; w; Q. [$ j
Codec ID : A_DTS% |% p  r0 n) e
Duration : 1 h 46 min
- o& v/ ~1 w, X7 a- K3 E& kBit rate mode : Variable2 A  k' K) ^# Q) T. x& H
Bit rate : 2 651 kb/s
+ H. M7 t# [- u2 r8 {Channel(s) : 6 channels
' r9 ^0 J0 T3 G% {4 O+ Q$ k: m2 sChannel layout : C L R Ls Rs LFE
* R5 ~: N" X! [( y( g, n! qSampling rate : 48.0 kHz; b% l; J/ u: h4 ]1 m
Frame rate : 93.750 FPS (512 SPF)0 X  u$ i; s! |. x; K1 c! @
Bit depth : 16 bits  i; {/ {1 `6 s' |% }* }$ ^/ o5 K
Compression mode : Lossless
" H4 V' a& s: M# Y( G6 G! N- IDelay relative to video : 3 ms8 F  d# R- g/ V- I! |# l
Stream size : 1.97 GiB (14%)
+ A+ x. f0 ]3 m7 W$ rTitle : DTS-HD MA 5.1# f/ U* G" @% a7 N
Language : English
: i5 U( X/ U" H. V; pDefault : Yes7 V- N4 p" v) }3 D7 c: e2 V
Forced : No( e) ?$ @8 e0 g$ ]& m- H. J/ X% C
( M+ u" _. @& \. ~9 O5 r8 {& a
: }/ y& f9 V, T7 v& e
Audio #2
3 e8 {" O7 H- E6 H+ x9 e+ kID : 3
( B6 _! O* G, ]3 y/ ^9 p5 P; mFormat : E-AC-3
( L" f- w2 s  t; CFormat/Info : Enhanced AC-3
: {8 ]! S; O& f+ CCommercial name : Dolby Digital Plus
3 j' ~3 H) l$ _8 O. d* C' `* d) {Codec ID : A_EAC3
3 G/ s2 e6 }; n/ o6 u/ x" QDuration : 1 h 46 min) ~7 B5 A  F) Q) v! x' r, T
Bit rate mode : Constant: ]# w3 l, X' q2 B& j
Bit rate : 256 kb/s
$ o# ]  Q' ^, N4 H0 |7 s3 lChannel(s) : 6 channels
9 f! d0 ^$ k) C: u; U6 |: C9 LChannel layout : L R C LFE Ls Rs6 D7 u& ~  T$ G$ ]4 A8 \0 F
Sampling rate : 48.0 kHz* M: V- y4 H# f7 f9 K
Frame rate : 31.250 FPS (1536 SPF)3 g3 k$ _% ~& R! s' @7 W0 Y/ X
Compression mode : Lossy
2 z5 V) }# c& M: g; n  k! ~+ TStream size : 195 MiB (1%)
+ z; M; B" t2 q8 c9 h8 {Language : English
; y/ q; d' p& h) F) T3 nService kind : Complete Main
1 n. \2 {6 b% S8 R$ PDefault : No/ |/ t( w, ~+ ^. L! J
Forced : No

$ j) k' r9 F. A- K/ F6 U8 w+ `5 V: }
蓝光高清网提示您  点击下方附件名称  马上开始下载
. y9 L& p( R( @  z+ M' j  b0 c; \- R8 p1 [3 \1 i, z
0 }0 \+ `: s" {' u; ]! O
惊心动魄(台) / 生死劫/不死劫4k Unbreakable.2000.2160p.DSNP.WEB-DL.x265.10bit.HDR.DTS-HD.MA.5.1-4k电影下载
6 r. o7 T$ N/ {1 k4 \% ]' y) F! p+ i+ @
# Y+ ?0 G4 _$ _( _# Q7 P; y" Y( E不死劫4k Unbreakable.2000.2160p.DSNP.WEB-DL.x265.10bit.HDR.DTS-HD.MA.5.1【14.49 GB】. A' \9 @( y( w" W6 N( `/ p- c
不死劫4k Unbreakable.2000.2160p.DSNP.WEB-DL.x265.10bit.HDR.DTS-HD.MA.5.1-.torrent (文件大小:18.78 KB)
加入蓝光高清网VIP会员  无限制下载本站所有资源---点这里

资源下载、资源播放、字幕使用、无法下载等常见问题---点这里
回复

使用道具 举报

您需要登录后才可以回帖 登录 | 立即注册

本版积分规则

烧友之家(蓝光高清网)本站内容部分由用户自主分享和转载自互联网,转载目的在于传递更多信息,并不代表本网赞同其观点和对其真实性负责。 如有侵权、违反国家法律政策行为,请联系我们,我们会第一时间及时清除和处理!
蓝光高清网 综合资讯平台
关注我们
  • 官方微信公众号
  • 扫码下载官方APP

X3.4 Licensed© 2001-2013 蓝光高清网 烧友之家APP |网站地图