游客您好
第三方账号登陆
  • 点击联系客服

    在线时间:9:00-18:00

    客服QQ

    1371333023

    电子邮件

    lanniao@1080pro.net
  • 烧友之家APP

    随时掌握烧友资讯

  • 扫描二维码

    关注微信公众号

推荐阅读
蓝鸟
未知星球 | 未知职业
  • 关注0
  • 粉丝2
  • 帖子95610
精选帖子
开启左侧

维克多·弗兰肯斯坦 4K.Victor.Frankenstein.2015.2160p.DSNP.WEB-DL.x265.10bit.HDR.DTS-HD.MA.7.1-4k电影下载—16.18 GB

[复制链接]
蓝鸟 发表于 2021-8-2 10:05:28 | 显示全部楼层 |阅读模式 打印 上一主题 下一主题
维克多·弗兰肯斯坦
上映时间:2015年
类型:剧情 恐怖 科幻 
地区:美国 
导演:保罗·麦圭根
主演:詹姆斯·麦卡沃伊 / 丹尼尔·雷德克里夫 / 杰西卡·布朗·芬德利 / 安德鲁·斯科特 / 马克·加蒂斯
画质标准:4K HDR  封装音轨:DTS-HD.MA 7.1 
豆瓣评分:6.2分

加入蓝光高清网,轻松下载最新4k资源

您需要 登录 才可以下载或查看,没有帐号?立即注册

x
简       介$ c% W/ }# _; F7 }) G$ T

0 z1 N2 A" Y9 m3 m7 Q5 n. q) S
( t) v' b* z4 i$ k$ t* _. S
  正驻扎于伦敦的马戏团内,生活着自幼驼背的青年(丹尼尔·雷德克里夫 Daniel Radcliffe 饰)。他的丑样子只能供人家取乐,而青年独独热爱医学,尤其擅长解剖学。在某次演出事故中,青年用自己的学识救下了摔成骨折命悬一线的女演员罗蕾莱(杰西卡·布朗·芬德利 Jessica Brown Findlay 饰)。他的学问得到疯狂科学家维克多·弗兰肯斯坦(詹姆斯·麦卡沃伊 James McAvoy 饰)的赏识,于是后者想方设法将其劫了出来,还为其起名伊戈尔。在此之前,弗兰肯斯坦曾经做出盗取动物园死亡动物尸体的事情,而他这一系列的做法只为进行一项疯狂大胆的实验,那就是缝缝补补创造出来人造的生物。" b( k5 i- {6 a
  疯狂之旅就此展开…
- R8 I# _7 I6 R, l$ Z/ X9 C2 M

" O/ i+ Q! M# o" }/ ]: k
2 S& J' C' y; C3 n8 T9 v5 i
影片参数
, `* a: B: g7 O/ |
科学怪人:创生之父(港) / 怪物(台)/维克多·弗兰肯斯坦4K.Victor.Frankenstein.2015.2160p.DSNP.WEB-DL.x265.10bit.HDR.DTS-HD.MA.7.1-4k电影信息0 G- p3 d% c3 n6 z
Video" n# o3 X" j' Q* R( j
ID : 13 D: K0 Z/ ?+ f# q
Format : HEVC3 {1 G/ `  F. L2 H: Q9 K2 J* z
Format/Info : High Efficiency Video Coding
4 F1 b* d* y" h& M, r1 yFormat profile : Main 10@L5@High
  }& H; z9 P4 K6 Y. GHDR format : SMPTE ST 2086, HDR10 compatible+ h* D9 B  K* d3 f2 }8 g
Codec ID : V_MPEGH/ISO/HEVC
, C5 ]- ^% o9 [: B# V! e( aDuration : 1 h 49 min6 h0 `3 o% H, Y$ i9 P' V
Bit rate : 16.5 Mb/s
0 p0 R8 t0 S0 v/ a" |2 ?" sWidth : 3 840 pixels
5 ^& Y, w" S- `- V2 l# ^, d* CHeight : 2 160 pixels
! B& _3 T; f" V" vDisplay aspect ratio : 16:9
5 d7 D0 Y' j1 Y2 C/ r2 Z# P4 y. rFrame rate mode : Constant; W9 ]; C5 H5 B8 T* S, }# Z
Frame rate : 23.976 (24000/1001) FPS0 q3 g& ~- o2 W# S  L6 w" b! N
Color space : YUV$ |' h  D) c+ {) `! H+ u. F. O6 _# @
Chroma subsampling : 4:2:0* A& U- y9 l+ p9 M1 X
Bit depth : 10 bits
, C* Y% j  j5 ~) `& x5 A* ~Bits/(Pixel*Frame) : 0.0832 Q4 K& Q0 ~/ n) j" g: L2 C
Stream size : 12.7 GiB (75%)
3 J* ~  ^( N9 Q8 W+ E4 g4 g# B9 NDefault : Yes
# x4 R# a) y, q" h5 E* n# dForced : No! `) L2 ]4 f4 ~
Color range : Limited9 Q) L+ {8 M9 E
Color primaries : BT.2020
; J; P1 o1 {1 w1 B8 T& f3 i- a' VTransfer characteristics : PQ
' S2 X; `% K) _! mMatrix coefficients : BT.2020 non-constant" d- e: V* M& |" S3 D* W) m! Z8 y
Mastering display color primaries : Display P3! o- e7 Q( I1 v! Y
Mastering display luminance : min: 0.0050 cd/m2, max: 1000 cd/m2
5 c# {! C2 s, q" i( ?* `5 v% d/ F: B3 ^

0 F3 y( N3 o0 K( qAudio #1
2 ^4 H; a1 u/ TID : 2
# l5 Z) ~4 o: W/ x6 y; J: M0 ~$ NFormat : DTS ES XLL
& H, D- u; J  a/ s- H2 ]; K# aFormat/Info : Digital Theater Systems( j) v$ K! U% t
Commercial name : DTS-HD Master Audio
9 V1 H! D6 p+ {# q, i/ pCodec ID : A_DTS
8 l4 [5 X; U2 t8 A* z" }Duration : 1 h 49 min6 s0 [9 O: Z8 x- h; C3 s' b
Bit rate mode : Variable9 R5 H* ?1 W& M. q0 ~* {, O
Bit rate : 4 984 kb/s
) Z# ^, a+ n* ZChannel(s) : 8 channels
& ?( N  N- W  r& g( Z8 w1 r. IChannel layout : C L R Ls Rs LFE Lb Rb
9 U8 k0 J- ?  @! l+ Q! @. f& N/ OSampling rate : 48.0 kHz
+ `( n% U9 y8 T" m: H  x; tFrame rate : 93.750 FPS (512 SPF)
) P9 \! _5 `: i  o9 K3 d9 wBit depth : 24 bits
! F# f) Y! `  M. ?9 X2 NCompression mode : Lossless6 y4 W1 v( g+ W# m
Stream size : 3.82 GiB (23%)5 y2 {2 v/ n) L1 i
Title : DTS-HD MA 7.1+ `/ t# P; D: y$ B: @
Language : English
1 f# A+ J: `/ a6 h& zDefault : Yes
! }7 Z' [6 c: T9 F5 I# VForced : No5 V8 x9 O2 P" |) @
4 f' S7 F9 l. j5 A7 Y
) r& i/ ^8 v. T% k7 A  K
Audio #2# {9 g6 P$ K- @- K% D" e
ID : 36 e' m  ]# k* u7 R$ o1 ^4 f# X
Format : E-AC-3
) i- o1 G1 D  a; WFormat/Info : Enhanced AC-3
% E$ g% p! q5 y" MCommercial name : Dolby Digital Plus% w' g! ?- T9 f% E2 o
Codec ID : A_EAC39 h$ w7 X8 ]& _' X
Duration : 1 h 49 min" c; d/ V% q* i( [8 H* }  K; U
Bit rate mode : Constant' W& q# F. @/ q
Bit rate : 256 kb/s2 {+ v6 N  _0 d) q, C
Channel(s) : 6 channels$ a8 D$ m0 q- ~5 c; c
Channel layout : L R C LFE Ls Rs
  V2 i5 B+ i7 g  h, USampling rate : 48.0 kHz. l8 H- j) I9 l1 }+ K
Frame rate : 31.250 FPS (1536 SPF)
6 r. m+ c: v/ S8 X4 k( b# i9 uCompression mode : Lossy
, _9 C' a- C: wStream size : 201 MiB (1%)
1 B2 Q4 e8 [, J) eLanguage : English' u* O2 b0 e6 ?6 b4 n' O
Service kind : Complete Main
( V- U+ P' e+ ~7 ~' FDefault : No
$ O# r4 V5 @/ Z, @: |6 d7 _0 q# ^Forced : No
! v# {( W' \* [3 F; k

. p5 j( w! B' z2 H) j5 g' A7 g0 Z蓝光高清网提示您  点击下方附件名称  马上开始下载
0 x0 l1 c- E: C3 s# b. [1 v3 ]/ ?- ~! R

$ e, h9 i6 A: `; ?$ \( j% b多版本下载时请注意区分( @+ f! V9 e) I- c

$ I4 a$ H" S4 i
, c# Q! K+ \& U3 u( L4 {5 I
科学怪人:创生之父(港) / 怪物(台)/维克多·弗兰肯斯坦4K.Victor.Frankenstein.2015.2160p.DSNP.WEB-DL.x265.10bit.HDR.DTS-HD.MA.7.1-4K电影下载8 n/ d# j" F: N* T! _2 }& s

; ?! U1 d6 [- O9 s, F- E维克多·弗兰肯斯坦4K.Victor.Frankenstein.2015.2160p.DSNP.WEB-DL.x265.10bit.HDR.DTS-HD.MA.7.1-简体中字【4K HDR 16.81 GB】- s7 ?/ r# B: `
维克多·弗兰肯斯坦4K.Victor.Frankenstein.2015.2160p.DSNP.WEB-DL.x265.10bi.torrent (文件大小:21.69 KB)
加入蓝光高清网VIP会员  无限制下载本站所有资源---点这里

资源下载、资源播放、字幕使用、无法下载等常见问题---点这里
回复

使用道具 举报

精彩评论3

Pan170948 发表于 2021-8-3 14:18:41 | 显示全部楼层
感谢楼主分享
回复 支持 反对

使用道具 举报

ggang1 发表于 2021-8-4 10:09:00 | 显示全部楼层
非常好!谢谢楼主资源
回复 支持 反对

使用道具 举报

豪TBLD 发表于 2021-8-8 19:22:54 | 显示全部楼层
喜欢 感谢分享
回复 支持 反对

使用道具 举报

您需要登录后才可以回帖 登录 | 立即注册

本版积分规则

烧友之家(蓝光高清网)本站内容部分由用户自主分享和转载自互联网,转载目的在于传递更多信息,并不代表本网赞同其观点和对其真实性负责。 如有侵权、违反国家法律政策行为,请联系我们,我们会第一时间及时清除和处理!
蓝光高清网 综合资讯平台
关注我们
  • 官方微信公众号
  • 扫码下载官方APP

X3.4 Licensed© 2001-2013 蓝光高清网 烧友之家APP |网站地图