游客您好
第三方账号登陆
  • 点击联系客服

    在线时间:9:00-18:00

    客服QQ

    1371333023

    电子邮件

    lanniao@1080pro.net
  • 烧友之家APP

    随时掌握烧友资讯

  • 扫描二维码

    关注微信公众号

推荐阅读
蓝鸟
未知星球 | 未知职业
  • 关注0
  • 粉丝2
  • 帖子95610
精选帖子
开启左侧

[4K高清美剧] 与马克·容森探索声音奥秘 4k Watch.the.Sound.With.Mark.Ronson.S01.2160p.ATVP.WEB-DL.DDP5.1.Atmos.x265-4k美剧下载—31.70 GB

[复制链接]
蓝鸟 发表于 2021-8-2 10:11:07 | 显示全部楼层 |阅读模式 打印 上一主题 下一主题
与马克·容森探索声音奥秘

状态:第一季(完结)
上映时间:2021-07-30
类型:纪录 音乐 
地区:美国
导演:马克·容森
主演:
画质标准:4K(3840x2160) 封装音轨:MKV 音轨编码:其他DD
豆瓣评分:
剧情简介
  Apple TV+纪录剧集《与马克·容森探索声音奥秘》(Watch the Sound With Mark Ronson,暂译)发布正式预告!马克·容森担任主持,嘉宾包括保罗·麦卡特尼、 DJ Premier、查莉·XCX(Charli XCX)、戴夫·格罗、Questlove等。他们将共同讲述音乐创作背后不为人知的故事,以及制作人和创作者为寻找完美声音而付出的努力。他们将共同探索技术与音乐的交集....

加入蓝光高清网,轻松下载最新4k资源

您需要 登录 才可以下载或查看,没有帐号?立即注册

x
影片参数
与马克·容森探索声音奥秘4k Watch.the.Sound.With.Mark.Ronson.S01.2160p.ATVP.WEB-DL.DDP5.1.Atmos.x265-4k美剧信息
Video
ID : 1
Format : HEVC
Format/Info : High Efficiency Video Coding
Format profile : Main 10@L5@High
Codec ID : V_MPEGH/ISO/HEVC
Duration : 36 min 8 s
Bit rate : 20.3 Mb/s
Width : 3 840 pixels
Height : 2 026 pixels
Display aspect ratio : 1.895
Frame rate mode : Constant
Frame rate : 23.976 (24000/1001) FPS
Color space : YUV
Chroma subsampling : 4:2:0
Bit depth : 10 bits
Bits/(Pixel*Frame) : 0.109
Stream size : 5.12 GiB (94%)
Language : English
Default : Yes
Forced : No
Color range : Limited
Color primaries : BT.709
Transfer characteristics : BT.709
Matrix coefficients : BT.709


Audio
ID : 2
Format : E-AC-3 JOC
Format/Info : Enhanced AC-3 with Joint Object Coding
Commercial name : Dolby Digital Plus with Dolby Atmos
Codec ID : A_EAC3
Duration : 36 min 8 s
Bit rate mode : Constant
Bit rate : 768 kb/s
Channel(s) : 6 channels
Channel layout : L R C LFE Ls Rs
Sampling rate : 48.0 kHz
Frame rate : 31.250 FPS (1536 SPF)
Compression mode : Lossy
Stream size : 198 MiB (4%)
Language : English
Service kind : Complete Main
Default : Yes
Forced : No
Complexity index : 16
Number of dynamic objects : 15
Bed channel count : 1 channel
Bed channel configuration : LFE


蓝光高清网提示您  点击下方附件名称  马上开始下载


多版本下载时请注意区分


与马克·容森探索声音奥秘4k Watch.the.Sound.With.Mark.Ronson.S01.2160p.ATVP.WEB-DL.DDP5.1.Atmos.x265-4k美剧下载


与马克·容森探索声音奥秘4k Watch.the.Sound.With.Mark.Ronson.S01.2160p.ATVP.WEB-DL.DDP5.1.Atmos.x265【31.70 GB】
与马克·容森探索声音奥秘4k Watch.the.Sound.With.Mark.Ronson.S01.2160p.ATV.torrent (文件大小:40.79 KB)
加入蓝光高清网VIP会员  无限制下载本站所有资源---点这里

资源下载、资源播放、字幕使用、无法下载等常见问题---点这里
回复

使用道具 举报

精彩评论3

Pan170948 发表于 2021-8-3 14:18:13 | 显示全部楼层
感谢楼主分享
回复 支持 反对

使用道具 举报

ggang1 发表于 2021-8-11 13:02:43 | 显示全部楼层

谢谢分享,楼主辛苦
回复 支持 反对

使用道具 举报

ggang1 发表于 2021-8-11 13:03:54 | 显示全部楼层

谢谢分享,楼主辛苦
回复 支持 反对

使用道具 举报

您需要登录后才可以回帖 登录 | 立即注册

本版积分规则

烧友之家(蓝光高清网)本站内容部分由用户自主分享和转载自互联网,转载目的在于传递更多信息,并不代表本网赞同其观点和对其真实性负责。 如有侵权、违反国家法律政策行为,请联系我们,我们会第一时间及时清除和处理!
蓝光高清网 综合资讯平台
关注我们
  • 官方微信公众号
  • 扫码下载官方APP

X3.4 Licensed© 2001-2013 蓝光高清网 烧友之家APP |网站地图