游客您好
第三方账号登陆
  • 点击联系客服

    在线时间:9:00-18:00

    客服QQ

    1371333023

    电子邮件

    lanniao@1080pro.net
  • 烧友之家APP

    随时掌握烧友资讯

  • 扫描二维码

    关注微信公众号

推荐阅读
蓝鸟
未知星球 | 未知职业
  • 关注0
  • 粉丝2
  • 帖子95610
精选帖子
开启左侧

The.Perseus.Survivor.2020.2160p.WEB.H264-纪录片下载—5.42 GB

[复制链接]
蓝鸟 发表于 2021-8-3 11:27:32 | 显示全部楼层 |阅读模式 打印 上一主题 下一主题
The.Perseus.Survivor
上映时间:2020年
类型:记录 
地区:其他 
导演:叶夫根尼·托马绍夫
主演:
画质标准:4K  封装音轨:LPCM 
豆瓣评分:6.7分

加入蓝光高清网,轻松下载最新4k资源

您需要 登录 才可以下载或查看,没有帐号?立即注册

x
简       介
1 ]' F( @2 R7 p, N
+ w+ p" i* t  ]% L# u0 n( T7 k1 x: k
0 Y' n# }( R. @: Z3 n' m7 b
       纪录片《英仙座幸存者》揭示了二战潜艇 HMS 英仙座和大概是卧底特工约翰·凯普斯的故事,约翰·凯普斯是唯一在导致该船损失的爆炸中幸存下来的人。由著名水下研究员里奇·科勒 (Richie Kohler) 领导的研究小组对她未被注意到的损失进行了深入调查,揭示了一系列相互关联的事件,这些事件揭示了埋藏在地中海黑暗水域中的众多谜团。
0 y) ?* N  i+ D2 ]% M
- O9 u4 S/ d% V- ?' Y9 N. F

2 _5 `% w- a: f/ W影片参数
9 ^9 g( @! O& z% R6 c7 H
The.Perseus.Survivor.2020.2160p.WEB.H264-纪录片电影信息
$ `& G% u7 G8 \! Y1 JVideo; X' B, B  P7 i2 N+ p$ n: q( m- q! d
ID : 1
! L) `7 |4 V- ?Format : AVC0 R9 t' T# x  Q* }) j* K
Format/Info : Advanced Video Codec9 J. [& _4 z5 X1 E2 u0 x
Format profile : High@L5.14 @; S: {) B7 ]3 a6 u& R& `& Z
Format settings : CABAC / 5 Ref Frames
" w* D5 c  x& _* ]Format settings, CABAC : Yes, j) c6 o1 l7 [& o6 T
Format settings, Reference frames : 5 frames, v4 Z( s- ?) P7 q  R" [
Codec ID : V_MPEG4/ISO/AVC
6 h1 P4 k9 D* U* Z3 ]% ~Duration : 56 min 59 s! B, T4 J4 k! f% b
Bit rate : 13.5 Mb/s
0 s/ S" w* f; n  TWidth : 3 840 pixels, ^, H* r' h3 T2 F
Height : 2 160 pixels
2 A: L! h- Q$ z+ p" A7 K! LDisplay aspect ratio : 16:9- ^8 M# |5 d) I2 [6 f" G$ c
Frame rate mode : Variable( ?9 a7 y  i. d% Y6 ^0 t
Frame rate : 23.976 FPS
$ U+ ?/ D1 d9 t) _/ HColor space : YUV5 W) w* j6 }+ @
Chroma subsampling : 4:2:0
7 d+ I7 K; m) _9 i% iBit depth : 8 bits
& _/ e/ Y2 T% B8 ^: b1 xScan type : Progressive
8 I" ]/ O+ o" @0 b2 t9 V- qBits/(Pixel*Frame) : 0.0682 m3 y: |1 M3 q6 ?3 ?* q2 P3 j6 M$ b
Stream size : 5.36 GiB (99%)
( x6 G" Q6 W1 ^+ M; ~6 kDefault : Yes/ u0 p; j/ W7 P
Forced : No9 V- I- |& l; V  X7 u" u3 P
8 ?" N0 M$ O0 A$ s5 c3 X

+ f8 k; U  y3 xAudio: L$ ~& e6 \0 ~& t. u9 I9 E8 f
ID : 2
+ a7 f) m* }9 M" r  M) ^, AFormat : AAC LC0 G5 ]$ ?  h6 I0 l/ X; k
Format/Info : Advanced Audio Codec Low Complexity
( b/ c+ A& t, ~; S8 zCodec ID : A_AAC-22 {% ?8 h" e, _' t- W/ B  p% L
Duration : 56 min 59 s
2 o& n3 L3 q" hBit rate : 157 kb/s  I/ e6 `" r; ~+ [7 b$ B( v* `0 v
Channel(s) : 2 channels
, c# n6 I. G; N) a+ cChannel layout : L R
5 E  m4 E: N+ H" e- \Sampling rate : 48.0 kHz, G+ F& D; n7 H7 \
Frame rate : 46.875 FPS (1024 SPF)) @3 R; ?& b) C/ R  U6 B% g1 o
Compression mode : Lossy
2 J1 O  q2 ~+ {7 Z. {4 dStream size : 64.2 MiB (1%). \' Z. K+ J- L  S2 Q
Language : English
  ^4 B. f1 p; g7 BDefault : Yes
; ]: Y: v8 E! r3 rForced : No
9 m$ l; v# J$ a5 k, ~- f: ]9 ?, {  F9 F- \0 U+ h4 c  D
: @1 s5 w8 M5 Q4 g/ s9 A$ {
Text
5 R0 m6 |! H/ m( X# k% vID : 3
8 n& z- g! x9 V2 e/ }7 KFormat : UTF-8& F  W2 z  \% k6 h) f
Codec ID : S_TEXT/UTF88 ?$ u8 u/ h4 B5 Z8 l
Codec ID/Info : UTF-8 Plain Text
. m) ~4 H! c# c) E0 sDuration : 55 min 0 s* f4 X* r6 e5 F3 k
Bit rate : 70 b/s
/ R! e. U8 N, s9 p, R1 V4 oCount of elements : 798
8 N- F) C) `$ S  Y$ wStream size : 28.3 KiB (0%)9 V( u! d" g- s( h( ^
Language : English8 O$ L8 x0 j& ~* t
Default : No6 F1 }9 M/ [# d& B0 h
Forced : No

6 Y# ~7 K; n5 y/ e
7 u6 w  Q6 N  D5 S6 G, U2 ^. s& ^9 `
蓝光高清蓝光高清网提示您  点击下方附件名称  马上开始下载% m$ o( v& V4 V4 d  U
9 o& P( T0 G* I$ D+ o/ w( J$ y' x% \
5 A! }+ j# S& }
The.Perseus.Survivor.2020.2160p.WEB.H264-纪录片电影下载
$ x( m) O* ?- Q( R( E; V5 z- s
0 }  i# H3 o. \

/ X9 _6 w+ l9 w# d" {* d8 MThe.Perseus.Survivor.2020.2160p.WEB.H264【5.42 GB】2 a1 ]: l( w) J% d) s: {" j9 I2 G. @
2 G7 \% M8 o% ~9 M) s% _$ \, W
The.Perseus.Survivor.2020.2160p.WEB.H264-CBFM.torrent (文件大小:14.26 KB)
加入蓝光高清网VIP会员  无限制下载本站所有资源---点这里

资源下载、资源播放、字幕使用、无法下载等常见问题---点这里
回复

使用道具 举报

您需要登录后才可以回帖 登录 | 立即注册

本版积分规则

烧友之家(蓝光高清网)本站内容部分由用户自主分享和转载自互联网,转载目的在于传递更多信息,并不代表本网赞同其观点和对其真实性负责。 如有侵权、违反国家法律政策行为,请联系我们,我们会第一时间及时清除和处理!
蓝光高清网 综合资讯平台
关注我们
  • 官方微信公众号
  • 扫码下载官方APP

X3.4 Licensed© 2001-2013 蓝光高清网 烧友之家APP |网站地图