游客您好
第三方账号登陆
  • 点击联系客服

    在线时间:9:00-18:00

    客服QQ

    1371333023

    电子邮件

    lanniao@1080pro.net
  • 烧友之家APP

    随时掌握烧友资讯

  • 扫描二维码

    关注微信公众号

推荐阅读
蓝鸟
未知星球 | 未知职业
  • 关注0
  • 粉丝2
  • 帖子95610
精选帖子
开启左侧

捉贼记 4k To.Catch.a.Thief.1955.2160p.WEB-DL.DD5.1.DV.MP4.x265-4k电影下载—

[复制链接]
蓝鸟 发表于 2021-8-3 11:34:17 | 显示全部楼层 |阅读模式 打印 上一主题 下一主题
捉贼记
上映时间:更早
类型:爱情 惊悚 犯罪 悬疑 
地区:美国 
导演:阿尔弗雷德·希区柯克
主演:
画质标准:4K  封装音轨:Dolby TrueHD 5.1 
豆瓣评分:7.2分

加入蓝光高清网,轻松下载最新4k资源

您需要 登录 才可以下载或查看,没有帐号?立即注册

x
简       介
( }! K& \6 j) E$ G. ]" `' g8 T$ t

7 `: I5 H7 ~/ F" ~+ L  最近城里的屡屡发生珠宝劫案,警察们都束手无策。因为贼人的手法和以前闻名的大盗“黑猫”约翰(加里•格兰特 Cary Grant 饰)如出一辙,警察们找上了正在乡间别墅过着悠闲生活的约翰。约翰当然不会轻易就范,他摆脱了警察之后,开始调查到底是谁用他的手法屡屡作案。毫无头绪的约翰找到了以前的战友巴先生,却被巴先生餐馆里的人视作不速之客。幸好在侍者孚的女儿的帮助下,约翰来到了嘎纳海滩。在保险公司经理的帮助下,约翰展开了他的抓贼行动。& l$ v+ v* V) A6 j! I

4 a: ^) [, K6 ^4 r/ a- H
# ]* Q) s* e* E# E
影片参数
9 c* ^4 ~8 E3 O4 Q
捉贼记4k To.Catch.a.Thief.1955.2160p.WEB-DL.DD5.1.DV.MP4.x265-4k杜比视界电影信息
5 J6 @, t4 |+ r, ]- n8 zVideo1 h' z2 a8 ~: y/ [0 I
ID : 1# v+ k0 v$ |  r% ^& S" S
Format : HEVC+ r2 z2 o' B* Z# o! [
Format/Info : High Efficiency Video Coding3 `& k) V& S' A( w+ P, p  K2 e4 V2 Z
Format profile : Main 10@L5@High4 f1 p4 M  z8 o/ h5 S" r, V0 L& X0 H
HDR format : Dolby Vision, Version 1.0, dvhe.05.06, BL+RPU
( D6 w9 L5 V1 ECodec ID : dvhe
& J  G/ ]1 q& q, c# OCodec ID/Info : High Efficiency Video Coding with Dolby Vision! W. P; r$ M# W& d: r( f9 p0 z
Duration : 1 h 46 min8 }' R0 [/ L; U% O; C
Bit rate : 24.6 Mb/s
- ?" n4 p. F, l& z9 BWidth : 3 840 pixels2 c4 r/ a% @: d6 ]& n
Height : 2 160 pixels
( K7 h3 S, s) u7 t" a3 o- lDisplay aspect ratio : 16:9
+ [$ V( |6 V. C4 X- C, L7 v! pFrame rate mode : Constant! i$ b" p) b& B
Frame rate : 23.976 (24000/1001) FPS
* u9 r2 r, Q* @" V1 ~Color space : YUV$ [2 d! C& [6 o; |
Chroma subsampling : 4:2:01 t' i5 z. h9 Y  J' O. f/ \
Bit depth : 10 bits
  M3 N7 c$ Y8 J) T! T$ v8 r7 zBits/(Pixel*Frame) : 0.124
) k3 S4 j2 m( L) d* dStream size : 18.3 GiB (98%)
' a4 G1 e- }) A& B, I1 Z9 E6 TDefault : Yes  V8 w1 `, X) b/ T4 Y4 \- {1 r( }1 n7 {
Alternate group : 11 c9 U" o6 Y% D- \! R) e& I' M! x
Encoded date : UTC 2021-08-02 19:37:536 b1 j1 J( A' z8 q
Tagged date : UTC 2021-08-02 19:47:45
( {& \" _* w6 l0 k' qCodec configuration box : hvcC+dvcC
* ~1 p% x/ m1 K& b5 N; a: ?2 [: m4 L% k. {% p
* X$ G) e2 _6 n
Audio
& L! b! @, y& [! r( DID : 2
- V- j) M4 s9 x; g0 F5 iFormat : AC-30 `7 D- V& Y* E
Format/Info : Audio Coding 3) r3 G# ~' \( o7 @1 \+ @
Commercial name : Dolby Digital
5 U* i/ H/ l1 u$ J: I- Z. _. @0 lCodec ID : ac-3
- e# [1 ~8 \% [$ i1 bDuration : 1 h 46 min
  }& ]( ?0 t6 }+ Y$ p, `4 `Bit rate mode : Constant
. q; h. [' V9 [6 lBit rate : 384 kb/s5 ?  L7 ?9 k9 B0 E, s
Maximum bit rate : 406 kb/s
  ?, s# E5 Y6 M! e; _5 x8 \Channel(s) : 6 channels0 k3 U( _+ L7 R# x" a
Channel layout : L R C LFE Ls Rs( g7 f7 A  q% R5 c( H0 W* f' X
Sampling rate : 48.0 kHz
4 z9 I( U* k" G0 v4 P) CFrame rate : 31.250 FPS (1536 SPF)
7 O' U" M+ r# O* x4 A* Z" d4 jCompression mode : Lossy& t) z7 W0 M5 f4 p8 E$ d8 G
Stream size : 293 MiB (2%)
6 O0 x5 S8 K2 V$ ETitle : English$ }( H9 B7 {5 G- _
Language : English
$ {3 c' [' K, |8 ?6 }# _. TService kind : Complete Main6 `! _: d+ ]* M2 j1 W
Encoded date : UTC 2021-08-02 19:37:304 \" `( Z1 t$ B. w' M* O4 s
Tagged date : UTC 2021-08-02 19:47:45

" M4 F- W0 ]: T  h1 k7 C* u7 B7 _- j
蓝光高清网提示您  点击下方附件名称  马上开始下载* S7 U5 b. X: x5 H% V0 g" e

' Y6 N, n: }8 U: V: g
. r2 z$ [& Y/ |* y1 R# d
捉贼记4k To.Catch.a.Thief.1955.2160p.WEB-DL.DD5.1.DV.MP4.x265-4k杜比视界电影下载; C8 n0 }  p  ~' l3 y) d1 d

' f1 U, R, ~# [' |+ h& H捉贼记4k To.Catch.a.Thief.1955.2160p.WEB-DL.DD5.1.DV.MP4.x265【18.59 GB】自带中字
: E! k% B& C& F3 ?( u3 r+ K$ d 捉贼记4k To.Catch.a.Thief.1955.2160p.WEB-DL.DD5.1.DV.MP4.x265-NOGRP 1.torrent (文件大小:23.87 KB)
加入蓝光高清网VIP会员  无限制下载本站所有资源---点这里

资源下载、资源播放、字幕使用、无法下载等常见问题---点这里
回复

使用道具 举报

精彩评论3

ggang1 发表于 2021-8-3 13:28:23 | 显示全部楼层
好片,感谢楼主分享
回复 支持 反对

使用道具 举报

ggang1 发表于 2021-8-4 10:10:42 | 显示全部楼层
非常好!谢谢楼主资源
回复 支持 反对

使用道具 举报

gdlmxia 发表于 2021-8-14 17:16:03 | 显示全部楼层
太好啦&萬分感謝版主的無私發佈分享%
回复 支持 反对

使用道具 举报

您需要登录后才可以回帖 登录 | 立即注册

本版积分规则

烧友之家(蓝光高清网)本站内容部分由用户自主分享和转载自互联网,转载目的在于传递更多信息,并不代表本网赞同其观点和对其真实性负责。 如有侵权、违反国家法律政策行为,请联系我们,我们会第一时间及时清除和处理!
蓝光高清网 综合资讯平台
关注我们
  • 官方微信公众号
  • 扫码下载官方APP

X3.4 Licensed© 2001-2013 蓝光高清网 烧友之家APP |网站地图