游客您好
第三方账号登陆
  • 点击联系客服

    在线时间:9:00-18:00

    客服QQ

    1371333023

    电子邮件

    lanniao@1080pro.net
  • 烧友之家APP

    随时掌握烧友资讯

  • 扫描二维码

    关注微信公众号

推荐阅读
蓝鸟
未知星球 | 未知职业
  • 关注0
  • 粉丝2
  • 帖子95610
精选帖子
开启左侧

青春年少 4k Rushmore.1998.2160p.DSNP.WEB-DL.x265.10bit.HDR.DTS-HD.MA.5.1-4k电影下载—13.87 GB

[复制链接]
蓝鸟 发表于 2021-8-4 13:04:25 | 显示全部楼层 |阅读模式 打印 上一主题 下一主题
青春年少
上映时间:1998年
类型:喜剧 剧情 
地区:美国 
导演:韦斯·安德森
主演:詹森·舒瓦兹曼 / 比尔·默瑞 / 奥莉维亚·威廉姆斯 / 西摩·卡塞尔 / 布莱恩·考克斯
画质标准:4K HDR  封装音轨:DTS-HD.MA 5.1 
豆瓣评分:8.1分

加入蓝光高清网,轻松下载最新4k资源

您需要 登录 才可以下载或查看,没有帐号?立即注册

x
简       介
. K! r2 ^1 P" C' {* ?1 ?! J* F& d) s6 H: n. P* L+ s2 J6 A

9 b  G4 [* e" ?0 R' O4 s& C  才华横溢,有一腔理想抱负的热血少年马克斯·费舍尔(詹森·舒瓦兹曼 Jason Schwartzman饰),在休斯敦一间贵族预备学校就读。初入名校的马克斯,却把全部的心思都投注于社团上。凭借着过人的聪明才智,他很快在各种社团里游刃有余。然而过分忽视功课的他,不久就面临着被退学的威胁。因缘际会,他与事业成功的商业大亨赫尔曼·布卢姆(比尔·默瑞 Bill Murray饰)成为了忘年之交,学会了很多人生真理。然而这一切都终结在了才貌双全的女老师露丝玛丽·克罗丝(奥莉维亚·威廉姆斯 Olivia Williams饰)手里。马克斯深陷爱情的世界里,不能自拔。
+ \- v4 |+ I1 @: J' k7 e) k3 o; Y# o  本片凭借着处处充满针锋相对的机智对白与幽默感,以及新老演员对角色的成功塑造和诠释,荣获1999年第56届金球奖电影类-最佳男配角提名及1999年独立精神奖最佳导演、最佳男配角等多项大奖。

2 M  p6 g6 c7 [7 ?7 ~& }( v+ s! l3 u" G3 S
/ V! a9 B/ a( K4 @- ~8 O4 V
影片参数
6 h3 d6 M* V9 y: p/ }3 x* {
都是爱情惹的祸(台) / 撬墙角(港) / 冲动少年/青春年少4k Rushmore.1998.2160p.DSNP.WEB-DL.x265.10bit.HDR.DTS-HD.MA.5.1-4k电影信息: O1 ~- F6 z3 J2 p# T3 j  i3 }
Video8 _4 m/ ~! d, [* v$ [; {: b  [' v
ID : 1
4 K5 }9 X* n4 ]Format : HEVC
+ _( ?5 i# q7 U3 X" d2 p$ a, {# _Format/Info : High Efficiency Video Coding) e" d3 Y; S0 o; Z) O
Format profile : Main 10@L5@High! _) U) \6 r* X6 Z9 `
HDR format : SMPTE ST 2086, HDR10 compatible6 ]+ p1 Y* D! N; E9 N
Codec ID : V_MPEGH/ISO/HEVC, O3 l9 _9 L. r
Duration : 1 h 32 min& N# e5 P6 t9 b
Bit rate : 16.5 Mb/s
2 {6 }( b' D+ u* a0 [+ TWidth : 3 840 pixels/ g% F$ |1 l6 n( A/ F# ?
Height : 2 160 pixels
6 l2 U( m0 c; v  @1 _" mDisplay aspect ratio : 16:9! N+ Y" t7 N" Q; R2 |
Frame rate mode : Constant
4 K4 t2 y, w" q) ~" I( c6 v4 ~Frame rate : 23.976 (24000/1001) FPS* j6 ^- Y; _- a
Color space : YUV, |+ Q  H; h/ ?. i
Chroma subsampling : 4:2:0
2 m' n) z7 ^1 ~Bit depth : 10 bits
2 M5 t/ e9 ?8 w% L) U& P& mBits/(Pixel*Frame) : 0.083. y9 r4 z: E' h6 o  C
Stream size : 10.7 GiB (77%)3 h& q/ h/ i8 A, I2 E/ p0 N6 s
Language : English6 m+ f) ^. b# ~5 ?  J
Default : Yes9 F3 R1 q" P. \0 Z0 v0 p1 m9 t  J- h
Forced : No
* M' C. `$ p7 LColor range : Limited
3 T% K# R& M) N/ nColor primaries : BT.2020
% L9 v; d. O# C$ L  ?7 ZTransfer characteristics : PQ
# n4 A# V' ^$ |. Z: ^; C% P, mMatrix coefficients : BT.2020 non-constant: L8 x; r# ~8 D& R; f- y
Mastering display color primaries : Display P3
# @. W7 F# |6 k& o* a1 RMastering display luminance : min: 0.0001 cd/m2, max: 1000 cd/m2
# m  m8 A. F8 ]7 P0 Z% @2 n5 B( d! S- N3 a9 |( n: A

) H& K) J' t4 i+ e# K1 r% K; hAudio #1
# ?3 D( w2 D1 p$ Z  UID : 2" m/ a/ t9 k, w
Format : DTS XLL
, ^3 G! a# l% w0 SFormat/Info : Digital Theater Systems3 \2 v. e9 R3 r9 R. y8 i4 p
Commercial name : DTS-HD Master Audio
, i# w% l* ~! I! a2 R% T7 VCodec ID : A_DTS: P, l6 X5 f5 S+ [
Duration : 1 h 32 min8 e6 I" p" d1 I. j) X
Bit rate mode : Variable
1 U" l. u" Y& w: OBit rate : 4 283 kb/s
7 {7 n7 F3 \1 h- {Channel(s) : 6 channels& ~0 |. w5 v4 h5 r& o9 _9 J
Channel layout : C L R Ls Rs LFE
1 ]9 N- @+ o6 N9 b$ \Sampling rate : 48.0 kHz
7 B' _" ]2 M( X2 W. f: E* H; U# HFrame rate : 93.750 FPS (512 SPF)8 }; |8 N1 S8 A. I# m' p  u+ d- k
Bit depth : 24 bits
# \7 B( k( y) b* q2 L. J# g- @+ a6 A* zCompression mode : Lossless
3 ^' k3 ~2 M; V9 {: }% X( yStream size : 2.78 GiB (20%)# {0 a/ X& T0 p, y3 \/ I9 [0 V
Title : DTS-HD MA 5.1. w3 `2 @! Z* C- [: J1 Q% l: K8 O
Language : English
/ R+ f2 `3 n9 O4 a. E2 CDefault : Yes; b6 B9 n( I' \# l8 F, P
Forced : No
4 |7 l3 l. A& B% g5 G: [
: O% P* V/ y/ U$ p: M* k6 E# O

8 L9 v6 o. F% `- }2 |Audio #2/ K- H: v  ^9 L
ID : 3. i. G8 h+ A/ ]. A9 P( g. _4 c6 j
Format : AC-3
7 ?6 Y+ O+ s0 G8 C6 o2 S5 JFormat/Info : Audio Coding 3
/ M. \! Z, _+ f9 e" cCommercial name : Dolby Digital$ d3 l) y) [1 f3 X& n# X8 r0 v
Codec ID : A_AC37 e1 ]9 ~# Q' G4 o$ n4 Y3 s
Duration : 1 h 32 min
- R; s5 E! P) KBit rate mode : Constant
% `" p0 x$ V; `0 DBit rate : 640 kb/s& a% e2 a3 N* D& t- |- K  S+ B
Channel(s) : 6 channels% `' q& s2 ^2 y
Channel layout : L R C LFE Ls Rs
, L0 r. w/ M! L4 H% aSampling rate : 48.0 kHz
) m/ i/ Q% |5 V( d$ @0 HFrame rate : 31.250 FPS (1536 SPF)9 n6 Z$ T' w+ t- J
Compression mode : Lossy4 N% J, v# r* g+ T
Stream size : 425 MiB (3%)+ H* W5 b1 l# _% s3 k, S( \/ O
Title : DD 5.1
; z, r# m( q' u+ T3 @4 q6 I7 jLanguage : English
2 `6 q  \% T" g$ B. b# d% C: t0 y9 pService kind : Complete Main
$ C" K  S0 f$ k( BDefault : No4 k% ]' D; T- G: ^
Forced : No

$ V, Y* c* j; S* U. }8 E
7 u0 x0 C& u0 ^' Z7 y) f" J9 q蓝光高清网提示您  点击下方附件名称  马上开始下载2 }8 F9 E. Q8 E( G" Z. ~- S

2 o! I( v  \7 F' t5 I( \5 S

% Y* O3 ?; t( v' N7 X都是爱情惹的祸(台) / 撬墙角(港) / 冲动少年/青春年少4k Rushmore.1998.2160p.DSNP.WEB-DL.x265.10bit.HDR.DTS-HD.MA.5.1-4k电影下载
! H  I% l) {- T% C  R" J$ S" Q
9 k0 x9 K; F% M  \. J3 ^青春年少4k Rushmore.1998.2160p.DSNP.WEB-DL.x265.10bit.HDR.DTS-HD.MA.5.1【13.87 GB】, H$ k; Z: Z7 ^5 ~2 i: P0 W2 N
青春年少4k Rushmore.1998.2160p.DSNP.WEB-DL.x265.10bit.HDR.DTS-HD.MA.5.1-N.torrent (文件大小:17.99 KB)
加入蓝光高清网VIP会员  无限制下载本站所有资源---点这里

资源下载、资源播放、字幕使用、无法下载等常见问题---点这里
回复

使用道具 举报

您需要登录后才可以回帖 登录 | 立即注册

本版积分规则

烧友之家(蓝光高清网)本站内容部分由用户自主分享和转载自互联网,转载目的在于传递更多信息,并不代表本网赞同其观点和对其真实性负责。 如有侵权、违反国家法律政策行为,请联系我们,我们会第一时间及时清除和处理!
蓝光高清网 综合资讯平台
关注我们
  • 官方微信公众号
  • 扫码下载官方APP

X3.4 Licensed© 2001-2013 蓝光高清网 烧友之家APP |网站地图