[剧情] 杀戮战场/战火屠城/杀戮之地 The.Killing.Fields.1984.1080p.BluRay.x264.DTS-FGT 12.5GB

[复制链接]
蓝鸟VIP会员 永久VIP 发表于 2019-8-22 01:49:54 | 显示全部楼层 |阅读模式 打印 上一主题 下一主题

马上注册,轻松下载,海量资源,让你轻松玩转社区。

您需要 登录 才可以下载或查看,没有帐号?立即注册

x


◎译  名 杀戮战场/战火屠城/杀戮之地
◎片  名 The Killing Fields
◎年  代 1984
◎国  家 英国
◎类  别 剧情/历史/战争
◎语  言 英语/法语/高棉语
◎上映日期 1984-11-02
◎IMDb评分  7.9/10 from 39,422 users
◎IMDb链接  http://www.imdb.com/title/tt0087553/
◎豆瓣评分 8.3/10 from 2,629 users
◎豆瓣链接 http://movie.douban.com/subject/1296617/
◎片  长 141 分钟
◎导  演 罗兰·约菲 Roland Joffé
◎主  演 萨姆·沃特森 Sam Waterston
      吴汉润 Haing S. Ngor
      约翰·马尔科维奇 John Malkovich
      朱利安·山德斯 Julian Sands
      格雷格·T·尼尔森 Craig T. Nelson
◎简  介
  1972年,美军在越南溃败撤离柬埔寨之后,纽约时报驻柬埔寨的战地记者辛尼(萨姆·沃特森 Sam Waterston饰)仍留在当地继续采访。柬埔寨人潘迪(吴汉润 Haing S. Ngor饰)是辛尼的当地翻译兼助手。辛尼在潘迪的帮助下,多次化险为夷逃过鬼门关。两人在战火纷飞中结下了深厚的友谊。1975年,红色高棉占领金边。辛尼得以全身而退,然而潘迪却因为没有护照而被捕,开始了生不如死的地狱生活。在柬共的劳动改造中,潘迪目睹了红色高棉政权的残暴血腥,受到了非人的待遇。1978年,越共入侵柬埔寨,潘迪趁机逃亡到泰国边境,与一直在寻找他的老朋友辛尼重逢。
  本片荣获1985年第57届奥斯卡金像奖最佳男配角、最佳摄影和最佳电影剪辑三项大奖。
◎获奖情况
  第57届奥斯卡金像奖 (1985)
  最佳影片(提名) David Puttnam
  最佳导演(提名) 罗兰·约菲
  最佳男主角(提名) 萨姆·沃特森
  最佳男配角 吴汉润
  最佳改编剧本(提名) 布鲁斯·罗宾逊
  最佳摄影 克里斯·门杰斯
  最佳剪辑 Jim Clark
Video
ID                                       : 1
Format                                   : AVC
Format/Info                              : Advanced Video Codec
Format profile                           : [email protected]
Format settings, CABAC                   : Yes
Format settings, ReFrames                : 4 frames
Codec ID                                 : V_MPEG4/ISO/AVC
Duration                                 : 2h 21mn
Bit rate                                 : 11.1 Mbps
Width                                    : 1 920 pixels
Height                                   : 1 080 pixels
Display aspect ratio                     : 16:9
Frame rate mode                          : Constant
Frame rate                               : 23.976 fps
Color space                              : YUV
Chroma subsampling                       : 4:2:0
Bit depth                                : 8 bits
Scan type                                : Progressive
Bits/(Pixel*Frame)                       : 0.223
Stream size                              : 10.8 GiB (86%)
Writing library                          : x264 core 88 r1471 1144615
Encoding settings                        : cabac=1 / ref=4 / deblock=1:-3:-3 / analyse=0x3:0x113 / me=umh / subme=9 / psy=1 / psy_rd=1.05:0.10 / mixed_ref=1 / me_range=64 / chroma_me=1 / trellis=2 / 8x8dct=1 / cqm=2 / deadzone=21,11 / fast_pskip=0 / chroma_qp_offset=-2 / threads=12 / sliced_threads=0 / nr=0 / decimate=1 / mbaff=0 / constrained_intra=0 / bframes=3 / b_pyramid=2 / b_adapt=2 / b_bias=0 / direct=3 / wpredb=1 / wpredp=2 / keyint=250 / keyint_min=25 / scenecut=40 / intra_refresh=0 / rc_lookahead=60 / rc=2pass / mbtree=1 / bitrate=11102 / ratetol=2.0 / qcomp=0.70 / qpmin=10 / qpmax=51 / qpstep=4 / cplxblur=20.0 / qblur=0.5 / vbv_maxrate=50000 / vbv_bufsize=50000 / ip_ratio=1.40 / aq=1:1.00
Language                                 : English
Default                                  : Yes
Forced                                   : Yes
Audio
ID                                       : 2
Format                                   : DTS
Format/Info                              : Digital Theater Systems
Mode                                     : 16
Format settings, Endianness              : Big
Codec ID                                 : A_DTS
Duration                                 : 2h 21mn
Bit rate mode                            : Constant
Bit rate                                 : 1 509 Kbps
Channel(s)                               : 6 channels
Channel positions                        : Front: L C R, Side: L R, LFE
Sampling rate                            : 48.0 KHz
Bit depth                                : 24 bits
Compression mode                         : Lossy
Stream size                              : 1.50 GiB (12%)
Language                                 : English
Default                                  : Yes
Forced                                   : No
Text #1
ID                                       : 3
Format                                   : UTF-8
Codec ID                                 : S_TEXT/UTF8
Codec ID/Info                            : UTF-8 Plain Text
Language                                 : English
Default                                  : No
Forced                                   : No
Text #2
ID                                       : 4
Format                                   : UTF-8
Codec ID                                 : S_TEXT/UTF8
Codec ID/Info                            : UTF-8 Plain Text
Language                                 : French
Default                                  : No
Forced                                   : No
Menu
00:00:00.000                             : en:Chapter 1
00:12:30.116                             : en:Chapter 2
00:29:50.989                             : en:Chapter 3
00:44:01.972                             : en:Chapter 4
00:58:57.333                             : en:Chapter 5
01:11:29.852                             : en:Chapter 6
01:22:15.330                             : en:Chapter 7
01:30:02.630                             : en:Chapter 8
01:37:06.954                             : en:Chapter 9
01:46:41.328                             : en:Chapter 10
01:59:14.113                             : en:Chapter 11
02:11:33.352                             : en:Chapter 12

精彩剧照


                                       

蓝光高清网提示您 点击下方附件名称 马上开始下载



温馨提示:
本站资源优先使用迅雷下载,迅雷会员下载,速度基本可以跑满宽带
如果遇到无资源或者版权问题无法下载,推荐使用115网盘离线下载(点击查看115网盘离线下载教程


  • 该资源需要您回复以后 刷新网页进行下载操作

  • 1、The.Killing.Fields.1984.1080p.BluRay.x264.DTS-FGT.torrent 63KB 已下载 0 次

加入蓝光高清网VIP会员  无限制下载本站所有资源---点此加入

资源下载、资源播放、字幕使用、无法下载等常见问题---点这里

回复

使用道具 举报

懒得打字嘛,点击右侧快捷回复
高级模式
B Color Image Link Quote Code Smilies 上传

本版积分规则

关注0

粉丝0

帖子66311

发布主题
最新电影 论坛
广告位
联系我们
点击这里联系客服

服务时间:
周一到周日8:00-23:30

  • 打开微信扫一扫
    关注公众号

  • 手机QQ扫一扫
    添加客服

Archiver手机版蓝光高清网 ( 渝ICP备18006373号-2 )|网站地图

Powered by Discuz! X3.4  © 2001-2013 Comsenz Inc.