[喜剧] 粉红色潜艇 Operation.Petticoat.1959.1080p.BluRay.x264.DTS-FGT 16.8GB

[复制链接]
蓝鸟VIP会员 永久VIP 发表于 2019-8-22 01:50:43 | 显示全部楼层 |阅读模式 打印 上一主题 下一主题

马上注册,轻松下载,海量资源,让你轻松玩转社区。

您需要 登录 才可以下载或查看,没有帐号?立即注册

x


◎译  名 粉红色潜艇
◎片  名 Operation Petticoat
◎年  代 1959
◎国  家 美国
◎类  别 喜剧/爱情
◎语  言 英语
◎上映日期 1959-12-05
◎IMDb评分  7.3/10 from 8,485 users
◎IMDb链接  http://www.imdb.com/title/tt0053143/
◎豆瓣评分 7.3/10 from 106 users
◎豆瓣链接 http://movie.douban.com/subject/1303403/
◎片  长 124 分钟/Germany: 100 分钟/Canada: 120 分钟(Ontario)
◎导  演 布莱克·爱德华兹 Blake Edwards
◎主  演 加里·格兰特 Cary Grant
      托尼·柯蒂斯 Tony Curtis
      琼·欧布伦 Joan O Brien
◎简  介
  美国海军海之虎号潜艇即将退役,海军少将雪曼早早地来到潜艇上,翻看航海日志。看着自己当年的记录,昔日情景仍历历在目。将军思绪万千,浮想联翩…….   太平洋战争初期,美国海军在东南亚步步退守。海之虎号潜艇在港口几乎被日军飞机炸沉,雪曼艇长(卡里·格兰特饰)的任务是在两周之内完成平时需要两个月才能做完的事——把完全失去航行和战斗能力的海之虎号修好并撤退,但时局艰难,海之虎号连最起码的补给都很难弄到。海军上尉霍顿前来报到,此人无论穿着打扮或言谈举止,都象个十足的纨绔子弟,而且有关潜艇专业的知识他一概不懂,雪曼艇长觉得自己又多了一重麻烦。   霍顿上尉主动请缨之下,当上了海之虎号的军需官。谁知这正是最能发挥他长才的职位。他妥为运筹,使海之虎号的军需补给呈现一派欣欣向荣的景象,很快就拔锚起航了,而基地指挥官则忙着追查搬空基地仓库及他本人办公室的窃贼。   霍顿上尉是个很有办法的人,海之虎号起航时引擎都没修好,他雇来当地巫师作法,帮助潜艇顺利离岸;中途停靠地找不到补给,他开设赌场允许当地官兵拿基地的物资来兑换筹码。他也是个好心的人,对于帮助过他寻找补给的人,他都会有所回报,因而海之虎号上多了一个犯过军法的囚犯厨师,多了一群美女军医,多了赌场老板大肚皮的婆娘们及一只产奶的山羊。看在他搜罗军需品的才能份上,这些奇奇怪怪的人和事雪曼艇长都勉强接受下来。   美女军医们上船后,雪曼艇长的烦恼更多了:船员们纷纷装病,以便享受温柔的呵护;一名女军医太过“层峦叠嶂”,雪曼艇长不得不下令当女士们通过狭窄的艇中走道时,男士们要自动消失;同样还是这名女军医,无意中按到了鱼雷发射钮,致使一枚鱼雷没有打中8000吨的日军油轮,却冲上沙滩击毁了一辆卡车……   海之虎号需要防锈漆,霍顿上尉只找到一些白色和红色的漆,从此太平洋上出现了一艘粉红色的潜艇。美、日双方都不知道本方有这样的潜艇,各自下令:一经发现粉红色潜艇,立即击沉。   海之虎号与一艘美国军舰遭遇了,还没来得及打招呼,炮弹便飞了过来,雪曼艇长命令紧急下潜,可他出尽百宝都无法骗得军舰停扔深水炸弹,只因为潜艇上有初生婴儿的哭声帮军舰的声纳作定位。万分危急之中,霍顿上尉建议将女军医们的内衣用鱼雷发射管打上海面。此计果然生效,军舰指挥官一看那胸罩便断定日本女人不会有这么大的尺码。   海之虎号得救了!   最后,霍顿上尉也当上了这艘“神奇潜艇”的艇长 。
◎获奖情况
  第32届奥斯卡金像奖 (1960)
  最佳原创剧本(提名) Stanley Shapiro / 莫里斯·里奇林 / Paul King / Joseph Stone
Video
ID                                       : 1
Format                                   : AVC
Format/Info                              : Advanced Video Codec
Format profile                           : [email protected]
Format settings, CABAC                   : Yes
Format settings, ReFrames                : 4 frames
Codec ID                                 : V_MPEG4/ISO/AVC
Duration                                 : 2h 0mn
Bit rate                                 : 18.8 Mbps
Width                                    : 1 920 pixels
Height                                   : 1 080 pixels
Display aspect ratio                     : 16:9
Frame rate mode                          : Constant
Frame rate                               : 23.976 fps
Color space                              : YUV
Chroma subsampling                       : 4:2:0
Bit depth                                : 8 bits
Scan type                                : Progressive
Bits/(Pixel*Frame)                       : 0.377
Stream size                              : 15.8 GiB (94%)
Writing library                          : x264 core 142 r2431 ac76440
Encoding settings                        : cabac=1 / ref=4 / deblock=1:-1:-1 / analyse=0x3:0x113 / me=umh / subme=10 / psy=1 / psy_rd=1.00:0.15 / mixed_ref=1 / me_range=32 / chroma_me=1 / trellis=2 / 8x8dct=1 / cqm=0 / deadzone=21,11 / fast_pskip=1 / chroma_qp_offset=-3 / threads=6 / lookahead_threads=1 / sliced_threads=0 / nr=0 / decimate=1 / interlaced=0 / bluray_compat=0 / constrained_intra=0 / bframes=8 / b_pyramid=2 / b_adapt=2 / b_bias=0 / direct=3 / weightb=1 / open_gop=0 / weightp=2 / keyint=230 / keyint_min=23 / scenecut=40 / intra_refresh=0 / rc_lookahead=40 / rc=crf / mbtree=0 / crf=19.0 / qcomp=0.60 / qpmin=0 / qpmax=69 / qpstep=4 / vbv_maxrate=40000 / vbv_bufsize=50000 / crf_max=0.0 / nal_hrd=none / filler=0 / ip_ratio=1.40 / pb_ratio=1.30 / aq=1:1.00
Language                                 : English
Default                                  : Yes
Forced                                   : No
Audio
ID                                       : 2
Format                                   : DTS
Format/Info                              : Digital Theater Systems
Mode                                     : 16
Format settings, Endianness              : Big
Codec ID                                 : A_DTS
Duration                                 : 2h 0mn
Bit rate mode                            : Constant
Bit rate                                 : 768 Kbps
Channel(s)                               : 1 channel
Channel positions                        : Front: C
Sampling rate                            : 48.0 KHz
Bit depth                                : 16 bits
Compression mode                         : Lossy
Stream size                              : 663 MiB (4%)
Language                                 : English
Default                                  : Yes
Forced                                   : No
Menu
00:00:00.000                             : :Chapter 01
00:19:04.434                             : :Chapter 02
00:36:09.332                             : :Chapter 03
00:45:10.248                             : :Chapter 04
00:58:08.610                             : :Chapter 05
01:12:23.339                             : :Chapter 06
01:28:12.077                             : :Chapter 07
01:44:06.448                             : :Chapter 08
02:00:42.193                             : :Chapter 09

精彩剧照


                                       

蓝光高清网提示您 点击下方附件名称 马上开始下载



温馨提示:
本站资源优先使用迅雷下载,迅雷会员下载,速度基本可以跑满宽带
如果遇到无资源或者版权问题无法下载,推荐使用115网盘离线下载(点击查看115网盘离线下载教程


  • 该资源需要您回复以后 刷新网页进行下载操作

  • 1、Operation.Petticoat.1959.1080p.BluRay.x264.DTS-FGT.torrent 85KB 已下载 0 次

加入蓝光高清网VIP会员  无限制下载本站所有资源---点此加入

资源下载、资源播放、字幕使用、无法下载等常见问题---点这里

回复

使用道具 举报

懒得打字嘛,点击右侧快捷回复
高级模式
B Color Image Link Quote Code Smilies 上传

本版积分规则

关注0

粉丝0

帖子66703

发布主题
最新电影 论坛
广告位
联系我们
点击这里联系客服

服务时间:
周一到周日8:00-23:30

  • 打开微信扫一扫
    关注公众号

  • 手机QQ扫一扫
    添加客服

Archiver手机版蓝光高清网 ( 渝ICP备18006373号-2 )|网站地图

Powered by Discuz! X3.4  © 2001-2013 Comsenz Inc.