[犯罪] 双重身份/虚假身份 Double.Identity.2009.1080p.BluRay.x264.DD5.1-FGT 6.56GB

[复制链接]
蓝鸟VIP会员 永久VIP 发表于 2019-8-22 01:51:32 | 显示全部楼层 |阅读模式 打印 上一主题 下一主题

马上注册,轻松下载,海量资源,让你轻松玩转社区。

您需要 登录 才可以下载或查看,没有帐号?立即注册

x


◎译  名 双重身份/虚假身份
◎片  名 Double Identity
◎年  代 2009
◎国  家 英国
◎类  别 犯罪/惊悚
◎语  言 英语
◎上映日期 2009-12-08(美国)/2011-10-18(中国大陆)
◎IMDb评分  4.5/10 from 1,987 users
◎IMDb链接  http://www.imdb.com/title/tt1290400/
◎豆瓣评分 4.3/10 from 1,630 users
◎豆瓣链接 http://movie.douban.com/subject/3407821/
◎片  长 93分钟
◎导  演 Dennis Dimster
◎主  演 方·基默 Val Kilmer
      伊莎贝拉·米珂 Izabella Miko
      Hristo Shopov
      Valentine Pelka
      Valentin Ganev
      Zahary Baharov
      Velislav Pavlov
      Julian Vergov
◎简  介
  品特(方·基默 Val Kilmer 饰)再也没有想到的是,平凡的自己有朝一日竟然会遭到黑白两道的追杀,而整件事的始作俑者,大概就是之前在机场邂逅的神秘女子。现在他所知道的的是,自己似乎被别人误认成为了一个叫做“约翰卡特”的男子,而这名男子才是那群凶徒想要用枪指着其脑袋的家伙。
  在一次又一次的逃亡中,神秘女子再次出现,她告诉品特自己的名字叫做凯瑟琳(伊莎贝拉·米珂 Izabella Miko 饰),并且希望品特能够利用约翰卡特的身份帮助他们做事。迫于情势,品特答应了凯瑟琳的要求,而在一次次惊现的动作场面后,品特明白,只有找到真正的约翰卡特,自己才有可能回归到原来的生活轨迹中去。
Video
ID                                       : 1
Format                                   : AVC
Format/Info                              : Advanced Video Codec
Format profile                           : [email protected]
Format settings, CABAC                   : Yes
Format settings, ReFrames                : 4 frames
Codec ID                                 : V_MPEG4/ISO/AVC
Duration                                 : 1h 32mn
Bit rate                                 : 9 468 Kbps
Width                                    : 1 920 pixels
Height                                   : 1 080 pixels
Display aspect ratio                     : 16:9
Frame rate mode                          : Constant
Frame rate                               : 23.976 fps
Color space                              : YUV
Chroma subsampling                       : 4:2:0
Bit depth                                : 8 bits
Scan type                                : Progressive
Bits/(Pixel*Frame)                       : 0.190
Stream size                              : 6.01 GiB (92%)
Writing library                          : x264 core 78 r1310 ec46ace
Encoding settings                        : cabac=1 / ref=4 / deblock=1:0:0 / analyse=0x3:0x133 / me=umh / subme=7 / psy=1 / psy_rd=1.0:0.0 / mixed_ref=1 / me_range=16 / chroma_me=1 / trellis=1 / 8x8dct=1 / cqm=0 / deadzone=21,11 / chroma_qp_offset=-2 / threads=6 / nr=0 / decimate=1 / mbaff=0 / constrained_intra=0 / bframes=3 / b_pyramid=2 / b_adapt=2 / b_bias=0 / direct=3 / wpredb=1 / keyint=250 / keyint_min=25 / scenecut=40 / rc=2pass / mbtree=0 / bitrate=9468 / ratetol=1.0 / qcomp=0.60 / qpmin=10 / qpmax=51 / qpstep=4 / cplxblur=20.0 / qblur=0.5 / ip_ratio=1.40 / pb_ratio=1.30 / aq=1:1.00
Language                                 : English
Default                                  : Yes
Forced                                   : No
Audio
ID                                       : 2
Format                                   : AC-3
Format/Info                              : Audio Coding 3
Mode extension                           : CM (complete main)
Format settings, Endianness              : Big
Codec ID                                 : A_AC3
Duration                                 : 1h 32mn
Bit rate mode                            : Constant
Bit rate                                 : 640 Kbps
Channel(s)                               : 6 channels
Channel positions                        : Front: L C R, Side: L R, LFE
Sampling rate                            : 48.0 KHz
Bit depth                                : 16 bits
Compression mode                         : Lossy
Stream size                              : 425 MiB (6%)
Language                                 : English
Default                                  : Yes
Forced                                   : No

精彩剧照


                                       

蓝光高清网提示您 点击下方附件名称 马上开始下载



温馨提示:
本站资源优先使用迅雷下载,迅雷会员下载,速度基本可以跑满宽带
如果遇到无资源或者版权问题无法下载,推荐使用115网盘离线下载(点击查看115网盘离线下载教程


  • 该资源需要您回复以后 刷新网页进行下载操作

  • 1、Double.Identity.2009.1080p.BluRay.x264.DD5.1-FGT.torrent 66KB 已下载 0 次

加入蓝光高清网VIP会员  无限制下载本站所有资源---点此加入

资源下载、资源播放、字幕使用、无法下载等常见问题---点这里

回复

使用道具 举报

懒得打字嘛,点击右侧快捷回复
高级模式
B Color Image Link Quote Code Smilies 上传

本版积分规则

关注0

粉丝0

帖子68004

发布主题
最新电影 论坛
广告位
联系我们
点击这里联系客服

服务时间:
周一到周日8:00-23:30

  • 打开微信扫一扫
    关注公众号

  • 手机QQ扫一扫
    添加客服

Archiver手机版蓝光高清网 ( 渝ICP备18006373号-2 )|网站地图

Powered by Discuz! X3.4  © 2001-2013 Comsenz Inc.