蓝光高清网

开启左侧

[8K视频] YouTube HDR 8k Best Mix Part 2 Dolby Vision.mp4 - 215MB

  [复制链接]

2021-8-31 17:56:25 35005 97

5. HDR 8k Best Mix Part 2 Dolby Vision.jpg

影片参数
General
Format                         : MPEG-4
Format profile                 : Base Media
Codec ID                       : isom (isom/iso2/mp41)
File size                      : 216 MiB
Duration                       : 2 min 47 s
Overall bit rate               : 10.8 Mb/s
Writing application            : Lavf58.29.100


Video
ID                             : 1
Format                         : AV1
Format/Info                    : AOMedia Video 1
Format profile                 : Main@L6.0
Codec ID                       : av01
Duration                       : 2 min 47 s
Bit rate                       : 10.7 Mb/s
Width                          : 7 680 pixels
Height                         : 4 320 pixels
Display aspect ratio           : 16:9
Frame rate mode                : Constant
Frame rate                     : 23.976 (24000/1001) FPS
Color space                    : YUV
Chroma subsampling             : 4:2:0
Bit depth                      : 8 bits
Bits/(Pixel*Frame)             : 0.013
Stream size                    : 213 MiB (99%)
Title                          : ISO Media file produced by Google Inc.
Color range                    : Limited
Color primaries                : BT.2020
Transfer characteristics       : PQ
Matrix coefficients            : BT.2020 non-constant
Codec configuration box        : av1C


Audio
ID                             : 2
Format                         : AAC LC
Format/Info                    : Advanced Audio Codec Low Complexity
Codec ID                       : mp4a-40-2
Duration                       : 2 min 47 s
Bit rate mode                  : Constant
Bit rate                       : 128 kb/s
Channel(s)                     : 2 channels
Channel layout                 : L R
Sampling rate                  : 44.1 kHz
Frame rate                     : 43.066 FPS (1024 SPF)
Compression mode               : Lossy
Stream size                    : 2.56 MiB (1%)
Title                          : ISO Media file produced by Google Inc.
Default                        : Yes
Alternate group                : 1

蓝光高清网提示您  点击下方附件名称即可开始下载

YouTube HDR 8k Best Mix Part 2 Dolby Vision.mp4 - 215MB
链接:https://pan.baidu.com/s/1PF75uNwzCGwlEAwPwFPp7A
提取码:
游客,如果您要查看本帖隐藏内容请回复


加入蓝光高清网VIP会员  无限制下载本站所有资源---点这里

资源下载、资源播放、字幕使用、无法下载等常见问题---点这里
回复

使用道具 举报

全部回复97

创维专卖手机认证 发表于 2021-8-11 11:44:57

创维专卖 沙发

2021-8-11 11:44:57

jhikhjghfghf
回复 支持 反对

使用道具 举报

Soyeonxiaoming手机认证 发表于 2021-8-11 18:35:24 来自手机

Soyeonxiaoming 板凳

2021-8-11 18:35:24

支持惹,但是视频感觉不大的样子
回复 支持 反对

使用道具 举报

jian_shao 发表于 2021-8-12 08:14:33

jian_shao 地板

2021-8-12 08:14:33

感谢分享!感谢分享!感谢分享!
回复 支持 反对

使用道具 举报

deank手机认证 发表于 2021-8-22 04:42:45

deank 5#

2021-8-22 04:42:45

一定要下载下来看看
回复 支持 反对

使用道具 举报

4kprocYQLTUN0手机认证 发表于 2021-8-22 20:58:45

4kprocYQLTUN0 6#

2021-8-22 20:58:45

一定要下载下来看看
回复 支持 反对

使用道具 举报

.W. 发表于 2021-8-22 22:47:17 来自手机

.W. 7#

2021-8-22 22:47:17

感谢楼主,下载下来看看
回复 支持 反对

使用道具 举报

九哥 发表于 2021-8-23 12:05:26

九哥 8#

2021-8-23 12:05:26

。。。。。。。。。
回复

使用道具 举报

hsc1109 发表于 2021-8-24 22:40:57

hsc1109 9#

2021-8-24 22:40:57

感谢分享,厉害了
回复 支持 反对

使用道具 举报

strong85 发表于 2021-8-31 17:56:25

strong85 10#

2021-8-31 17:56:25

感谢分享
回复

使用道具 举报

发表回复

您需要登录后才可以回帖 登录 | 立即注册

返回列表 本版积分规则

:
:
1371333023@qq.com
:
点击这里给我发消息
:
http://
:
未填写

主题97224

帖子97728

积分183041

最新推荐

  • 世界之美THE BEAUTY OF THE WORLD in 8K UL

    影片参数 蓝光高清网提示您 点击下方附件名

  • 8K(60p)VIDEOS UltraHD _ Realistic 8K HD

    影片参数 蓝光高清网提示您 点击下方附件名

  • 8K (120 FPS) VIDEOS _ World 8K Videos H

    影片参数 蓝光高清网提示您 点击下方附件

  • 8K (60 FPS) VIDEOS _ Beauty of WorldH

    影片参数 蓝光高清网提示您 点击下方

  • 8K [60 FPS]VIDEO ULTRA HD - Collection o

    影片参数 蓝光高清网提示您 点击下方附

  • Asia _ Raw Beauty - (120 FPS) 8K HDR Ult

    影片参数 蓝光高清网提示您 点击下方

  • (60fps) Hawaii in 8K ULTRA HD - Paradise

    影片参数 蓝光高清网提示您 点击下方附件名

  • 60FPS 8K VIDEO ULTRA HD HDR - Nature is

    影片参数 蓝光高清网提示您 点击下方附件名

  • (120 FPS) 8K Videos _ Collection of Worl

    影片参数 蓝光高清网提示您 点击下方附

  • 60 FPS 8K VIDEOS _ London in 8K HDR Ultr

    影片参数 蓝光高清网提示您 点击下方附

  • 发帖

  • 在线客服

  • 微信

  • 客户端

  • 返回顶部