蓝光高清网

开启左侧

[8K视频] France in 8K 60FPS ULTRA HD - King of France is Paris !.mp4 4.71GB

  [复制链接]

2022-1-15 17:44:56 5847 7

5. France in 8K ULTRA HD - King of France is Paris !.jpg


影片参数
General
Format                         : MPEG-4
Format profile                 : Base Media
Codec ID                       : isom (isom/iso2/mp41)
File size                      : 4.71 GiB
Duration                       : 20 min 10 s
Overall bit rate               : 33.4 Mb/s
Writing application            : Lavf58.29.100


Video
ID                             : 1
Format                         : AV1
Format/Info                    : AOMedia Video 1
Format profile                 : Main@L6.1
Codec ID                       : av01
Duration                       : 20 min 10 s
Bit rate                       : 33.3 Mb/s
Width                          : 7 680 pixels
Height                         : 4 320 pixels
Display aspect ratio           : 16:9
Frame rate mode                : Constant
Frame rate                     : 60.000 FPS
Color space                    : YUV
Chroma subsampling             : 4:2:0
Bit depth                      : 8 bits
Bits/(Pixel*Frame)             : 0.017
Stream size                    : 4.69 GiB (100%)
Title                          : ISO Media file produced by Google Inc.
Color range                    : Limited
Color primaries                : BT.709
Transfer characteristics       : BT.709
Matrix coefficients            : BT.709
Codec configuration box        : av1C


Audio
ID                             : 2
Format                         : AAC LC
Format/Info                    : Advanced Audio Codec Low Complexity
Codec ID                       : mp4a-40-2
Duration                       : 20 min 10 s
Bit rate mode                  : Constant
Bit rate                       : 128 kb/s
Channel(s)                     : 2 channels
Channel layout                 : L R
Sampling rate                  : 44.1 kHz
Frame rate                     : 43.066 FPS (1024 SPF)
Compression mode               : Lossy
Stream size                    : 18.5 MiB (0%)
Title                          : ISO Media file produced by Google Inc.
Language                       : English
Default                        : Yes
Alternate group                : 1


蓝光高清网提示您  点击下方附件名称即可开始下载



France in 8K 60FPS ULTRA HD - King of France is Paris !.mp4 4.71GB
France in 8K ULTRA HD - King of France is Paris .txt (151 Bytes)
回复

使用道具 举报

全部回复7

gdlmxia 发表于 2021-8-13 18:09:44

gdlmxia 沙发

2021-8-13 18:09:44

太好啦&萬分感謝版主的無私發佈分享%
回复 支持 反对

使用道具 举报

deank手机认证 发表于 2021-8-22 04:41:27

deank 板凳

2021-8-22 04:41:27

一定要下载下来看看
回复 支持 反对

使用道具 举报

姜宁 发表于 2021-12-21 11:22:32

姜宁 地板

2021-12-21 11:22:32


感谢楼主分享
回复 支持 反对

使用道具 举报

opodo 发表于 2021-12-31 08:39:43

opodo 5#

2021-12-31 08:39:43

太好啦&萬分感謝版主的無私發佈分享%
回复 支持 反对

使用道具 举报

zzz439931 发表于 2022-1-15 12:59:49

zzz439931 6#

2022-1-15 12:59:49

感谢楼主分享
回复 支持 反对

使用道具 举报

4kpropWy9MS9n手机认证 发表于 2022-1-15 17:44:05

4kpropWy9MS9n 7#

2022-1-15 17:44:05

谢谢楼主分享
回复 支持 反对

使用道具 举报

4kpropWy9MS9n手机认证 发表于 2022-1-15 17:44:56

4kpropWy9MS9n 8#

2022-1-15 17:44:56

谢谢楼主分享精彩内容!!!
回复 支持 反对

使用道具 举报

发表回复

您需要登录后才可以回帖 登录 | 立即注册

返回列表 本版积分规则

:
:
18181818@qq.com
:
未填写
:
未填写
:
未填写

主题803

帖子816

积分3026

最新推荐

  • 世界之美THE BEAUTY OF THE WORLD in 8K UL

    影片参数 蓝光高清网提示您 点击下方附件名

  • 8K(60p)VIDEOS UltraHD _ Realistic 8K HD

    影片参数 蓝光高清网提示您 点击下方附件名

  • 8K (120 FPS) VIDEOS _ World 8K Videos H

    影片参数 蓝光高清网提示您 点击下方附件

  • 8K (60 FPS) VIDEOS _ Beauty of WorldH

    影片参数 蓝光高清网提示您 点击下方

  • 8K [60 FPS]VIDEO ULTRA HD - Collection o

    影片参数 蓝光高清网提示您 点击下方附

  • Asia _ Raw Beauty - (120 FPS) 8K HDR Ult

    影片参数 蓝光高清网提示您 点击下方

  • (60fps) Hawaii in 8K ULTRA HD - Paradise

    影片参数 蓝光高清网提示您 点击下方附件名

  • 60FPS 8K VIDEO ULTRA HD HDR - Nature is

    影片参数 蓝光高清网提示您 点击下方附件名

  • (120 FPS) 8K Videos _ Collection of Worl

    影片参数 蓝光高清网提示您 点击下方附

  • 60 FPS 8K VIDEOS _ London in 8K HDR Ultr

    影片参数 蓝光高清网提示您 点击下方附

  • 发帖

  • 在线客服

  • 微信

  • 客户端

  • 返回顶部