游客您好
第三方账号登陆
  • 点击联系客服

    在线时间:9:00-18:00

    客服QQ

    1371333023

    电子邮件

    lanniao@1080pro.net
  • 烧友之家APP

    随时掌握烧友资讯

  • 扫描二维码

    关注微信公众号

推荐阅读
蓝鸟
未知星球 | 未知职业
  • 关注0
  • 粉丝2
  • 帖子95993
精选帖子
开启左侧

[4K高清美剧] 低俗僵尸玩出征(港) / 吸血鬼家庭尸篇(台)/吸血鬼生活 第二季4k What.We.Do.in.the.Shadows.S02.2160p.WEBRip.DDP5.1.x265美剧下载—24.67 GB

[复制链接]
蓝鸟 发表于 2021-8-28 11:07:57 | 显示全部楼层 |阅读模式 打印 上一主题 下一主题
吸血鬼生活

状态:第二季(完结)
上映时间:2020-04-15
类型:喜剧 恐怖 奇幻 
地区:美国
导演:杰梅奈·克莱门特 / 凯尔·纽瓦切克 / 丽萨·约翰逊
主演:凯万·诺瓦克 / 马特·贝里 / 娜塔希亚·德米特里厄斯 / 哈维·吉兰 / 马克·普罗克施
画质标准:4K(3840x2160) 封装音轨:MKV 音轨编码:其他DD
豆瓣评分:9.2分
剧情简介
  本剧围绕四名共同“生活”上百年的吸血鬼展开,第二季中他们将继续努力在当代美国找寻自我方向,啼笑皆非地面对人类超级碗派对、网络暴民、新晋加官恋权的精力吸血鬼,以及所有自在游荡于纽约都会区的幽灵、女巫、招魂师、僵尸和潜行刺客....
影片参数
低俗僵尸玩出征(港) / 吸血鬼家庭尸篇(台)/吸血鬼生活 第二季4k What.We.Do.in.the.Shadows.S02.2160p.WEBRip.DDP5.1.x265美剧信息
Video
ID : 1
Format : HEVC
Format/Info : High Efficiency Video Coding
Format profile : Main 10@L5.1@Main
Codec ID : V_MPEGH/ISO/HEVC
Duration : 24 min 34 s
Bit rate : 15.2 Mb/s
Width : 3 840 pixels
Height : 2 160 pixels
Display aspect ratio : 16:9
Frame rate mode : Constant
Frame rate : 23.976 (24000/1001) FPS
Color space : YUV
Chroma subsampling : 4:2:0
Bit depth : 10 bits
Bits/(Pixel*Frame) : 0.076
Stream size : 2.61 GiB (96%)
Default : Yes
Forced : No


Audio
ID : 2
Format : E-AC-3
Format/Info : Enhanced AC-3
Commercial name : Dolby Digital Plus
Codec ID : A_EAC3
Duration : 24 min 34 s
Bit rate mode : Constant
Bit rate : 256 kb/s
Channel(s) : 6 channels
Channel layout : L R C LFE Ls Rs
Sampling rate : 48.0 kHz
Frame rate : 31.250 FPS (1536 SPF)
Compression mode : Lossy
Delay relative to video : 24 ms
Stream size : 45.0 MiB (2%)
Language : English
Service kind : Complete Main
Default : Yes
Forced : No


Text
ID : 3
Format : UTF-8
Codec ID : S_TEXT/UTF8
Codec ID/Info : UTF-8 Plain Text
Title : English
Language : English
Default : No
Forced : No


蓝光高清网提示您  点击下方附件名称  马上开始下载


低俗僵尸玩出征(港) / 吸血鬼家庭尸篇(台)/吸血鬼生活 第二季4k What.We.Do.in.the.Shadows.S02.2160p.WEBRip.DDP5.1.x265美剧下载


吸血鬼生活 第二季4k What.We.Do.in.the.Shadows.S02.2160p.WEBRip.DDP5.1.x265【24.67 GB】

吸血鬼生活 第二季4k What.We.Do.in.the.Shadows.S02.2160p.WEBRip.DDP5.1.x26.torrent (大小:32.26 KB)
加入蓝光高清网VIP会员  无限制下载本站所有资源---点这里

资源下载、资源播放、字幕使用、无法下载等常见问题---点这里
回复

使用道具 举报

精彩评论1

坐地巡天 发表于 7 天前 | 显示全部楼层
谢谢楼主分享
回复 支持 反对

使用道具 举报

您需要登录后才可以回帖 登录 | 立即注册

本版积分规则

烧友之家(蓝光高清网)本站内容部分由用户自主分享和转载自互联网,转载目的在于传递更多信息,并不代表本网赞同其观点和对其真实性负责。 如有侵权、违反国家法律政策行为,请联系我们,我们会第一时间及时清除和处理!
蓝光高清网 综合资讯平台
关注我们
  • 官方微信公众号
  • 扫码下载官方APP

X3.4 Licensed© 2001-2013 蓝光高清网 烧友之家APP |网站地图