游客您好
第三方账号登陆
  • 点击联系客服

    在线时间:9:00-18:00

    客服QQ

    1371333023

    电子邮件

    lanniao@1080pro.net
  • 烧友之家APP

    随时掌握烧友资讯

  • 扫描二维码

    关注微信公众号

推荐阅读
蓝鸟
未知星球 | 未知职业
  • 关注0
  • 粉丝2
  • 帖子95610
精选帖子
开启左侧

偷天换日 4k The.Italian.Job.2003.2160p.WEB.DL.DD5.1.DV.MP4.x265-4k杜比视界电影下载—19.40 GB

[复制链接]
蓝鸟 发表于 2021-9-9 09:12:48 | 显示全部楼层 |阅读模式 打印 上一主题 下一主题
偷天换日
上映时间:2003年
类型:动作 惊悚 犯罪 
地区:美国 
导演:F·加里·格雷
主演:马克·沃尔伯格 / 查理兹·塞隆 / 爱德华·诺顿 / 唐纳德·萨瑟兰 / 杰森·斯坦森
画质标准:4K  封装音轨:Dolby Atmos 
豆瓣评分:7.6分

加入蓝光高清网,轻松下载最新4k资源

您需要 登录 才可以下载或查看,没有帐号?立即注册

x
简       介
* E1 u1 b$ n$ f# k0 I/ I" a4 a1 n) \- o5 o
* \- j4 j! L* x" y& j+ s
  查理(马克·沃尔伯格 Mark Wahlberg 饰)本来可以拿着抢劫回来的那箱黄金安度余生,同伙史蒂夫(爱德华·诺顿 Edward Norton饰)的出卖却让他的阵脚大乱。史蒂夫不但独吞了巨款逃亡洛杉矶,还害得查理尝尽牢狱之苦。' K# a4 u2 a3 m# s; F" m6 K, P
  现在从监狱出来的查理,正踌躇满志要找史蒂夫算上一帐。他网罗了盗窃高手——美女斯黛拉(查理兹·塞隆 Charlize Theron 饰)专门负责开保险柜,而他和其他搭档,则全力设计出一条通畅的大道,供迅速逃跑之用。斯黛拉前往引史蒂夫上勾,却被老奸巨猾的史蒂夫识破。查理则飞速的破坏了洛杉矶的红绿灯系统,洛杉矶发生了蔚为壮观的大塞车,然而,令他们意外的是,逃脱没有如此简单——史蒂夫没有驱车追赶,他用了一辆直升飞机,在他们上空穷追不舍。洛杉矶的地下隧道和街头小巷,陷入了一片混战。
+ u  y7 ]0 y: @; ]7 J: M

8 {6 b" F: P7 \- E) I! @
* L, f9 W8 k7 H  o% w$ w& N
影片参数0 D$ B% {0 |' z1 a4 m
天罗盗网(港) / 意大利任务 / 爆窃意大利/偷天换日4k The.Italian.Job.2003.2160p.WEB.DL.DD5.1.DV.MP4.x265-4k杜比视界电影信息! w# d6 N4 F# \% U' u$ f; H4 n
Video5 r  o3 h, c- A: h' U. H
ID : 15 J5 V7 D$ H; ?! m5 {7 P
Format : HEVC7 P" O8 ?+ e$ C7 r2 K
Format/Info : High Efficiency Video Coding% ?, i! [. m2 e( r$ f
Format profile : Main 10@L5@High4 P/ V' b& ~3 a* B& v
HDR format : Dolby Vision, Version 1.0, dvhe.05.06, BL+RPU
1 _% a1 m$ t1 z8 R  p- aCodec ID : dvhe
! s3 _- b* K$ p% l* }Codec ID/Info : High Efficiency Video Coding with Dolby Vision
+ M- y0 l; [5 z1 B. W2 wDuration : 1 h 50 min
1 u4 X2 D3 }5 e6 a( tBit rate : 24.7 Mb/s$ t: H% {0 P/ R
Width : 3 840 pixels7 K: b2 F6 s9 y
Height : 1 640 pixels5 e- g6 V) P! E# L# s6 u: L1 n) ?" @! |. P; o
Original height : 1 634 pixels; h8 l: K) e7 E7 b" g7 f9 @0 {
Display aspect ratio : 2.35:1
6 B& i5 B" }1 _4 k: wOriginal display aspect ratio : 2.35:14 s0 r9 N" ~# V! y7 t- \
Frame rate mode : Constant
$ m, L8 @; j# GFrame rate : 23.976 (24000/1001) FPS/ `- D& _+ A& z# C
Color space : YUV3 Z3 e) O2 \0 ]* b, @, M- x4 [
Chroma subsampling : 4:2:0
) ]( l+ G( y- I! m- ~) IBit depth : 10 bits
# T! j) `8 A1 R+ y) Y* m/ GBits/(Pixel*Frame) : 0.164
: L" K+ T/ J/ q) D! s& P5 jStream size : 19.1 GiB (98%)' ^0 D3 D" d6 j  O1 E  z2 ~
Default : Yes2 s) S. H# L: x5 w9 M4 o
Alternate group : 1% O3 C+ b" T- r9 s8 f
Encoded date : UTC 2021-09-08 13:11:54
) Y- i8 }& ^1 E9 t' xTagged date : UTC 2021-09-08 16:59:08
+ Y/ \9 Z5 |* G4 F" r8 r, pCodec configuration box : hvcC+dvcC
; ~# ?2 y+ `; g0 Q0 X' `# H! @! D6 [3 ^# t) b' p5 n

7 Z  n) z% B% `) r/ [Audio
  f6 X6 I: s9 _1 m' QID : 2" A% A: a6 ]6 P: T7 O  i& `; J  j
Format : AC-3
8 j. @3 H+ C/ r' P2 E. ?$ P$ DFormat/Info : Audio Coding 3
/ V: ~- i. R4 T% @Commercial name : Dolby Digital1 ?( Q/ G" t$ u; E& t
Codec ID : ac-3& `" Y9 M  z0 \8 R. u
Duration : 1 h 50 min- x0 ~  X1 J# c* t
Bit rate mode : Constant
" m# j0 u& M3 R* x# e) y$ U; mBit rate : 384 kb/s
! \+ o! f7 n6 CMaximum bit rate : 406 kb/s$ l! r) w+ D  h- D2 u7 }( b  s
Channel(s) : 6 channels8 d. R, r" n8 R, F/ H, o
Channel layout : L R C LFE Ls Rs
6 r. x6 ~5 W- `5 q& m( F6 a0 TSampling rate : 48.0 kHz
& W; [8 V7 [: X" s3 bFrame rate : 31.250 FPS (1536 SPF)% J5 R2 }$ }, ~( d$ Z: D
Compression mode : Lossy
6 _7 c& a; ]  G6 e3 r" v# Q% S" [: y# AStream size : 304 MiB (2%)3 `# }) Z+ m5 m2 W+ b: n$ b
Title : English (US)
+ d* K, W' E' wLanguage : English
- c4 y% H: i& R" |) O0 f  ]2 i( lService kind : Complete Main8 f) X" p4 m$ Q  b
Encoded date : UTC 2021-09-08 13:09:33. I- e7 _, `* f( _8 w0 Q7 s5 Q9 M- Y
Tagged date : UTC 2021-09-08 16:59:08
3 V, T1 U& s0 N% y( X( b$ b7 U$ F' R/ n/ ]1 c# _# V

, y( e% \" O2 Y/ ?2 BText #1
/ S$ z( ^3 y4 h0 G# C6 EID : 3
# B$ h" j' P9 n% h" XFormat : Timed Text
& z0 E& I. P1 g; v4 W8 m  a, ACodec ID : tx3g
0 N5 t" `/ K! d8 O6 bDuration : 1 h 46 min  ~5 e5 |5 t, Q3 n6 y
Bit rate mode : Variable- z" l1 \) j# `
Bit rate : 64 b/s
( O( b  Z+ ^! A; X4 LStream size : 49.9 KiB (0%)
5 v1 F2 C" {1 w, {Title : English
1 b8 D. h+ F& s/ SLanguage : English: @% O; W( K" @9 P. D6 N1 i
Forced : No. ?" H; O( F! E% |+ C
Encoded date : UTC 2021-09-08 13:14:07
1 h4 P8 i7 U# \/ X* _) FTagged date : UTC 2021-09-08 16:59:08: a$ e" Y" o; M0 [1 ]
! d7 Y6 N" w3 {/ C7 E* ]% J

0 z+ G, f' N2 x5 D1 fText #29 v0 c5 d5 r" k5 S, u+ t0 S
ID : 4
9 k2 ~, H- @  ?- Y; fFormat : Timed Text# `# ^. u. B, m6 I2 R
Codec ID : tx3g% F# J. O* w( d6 A6 b: z  O
Duration : 1 h 50 min% U5 w0 {2 g5 I3 z( N+ h; \4 P4 E
Bit rate mode : Variable5 f* n. U1 F/ Q: [/ ~
Bit rate : 75 b/s. F0 m9 e8 M1 h. ~! R: |
Stream size : 60.6 KiB (0%)
" h! x# b" B( ~. v. Q6 bTitle : SDH
3 Y" k/ J$ n1 O6 U  T4 |+ pLanguage : English
3 j; s. Y5 O) F5 P9 `Forced : No
# W* D/ B/ ]% C4 w5 b# |+ QEncoded date : UTC 2021-09-08 13:14:08" R" K- j( H( ]/ A8 `& l
Tagged date : UTC 2021-09-08 16:59:08
9 z1 y/ ^, F+ J4 s4 _% h, E# @6 w" q3 x0 k# n1 _" f; @7 O2 ^

4 ?/ |5 x, Q( t8 PMenu. {% k. T2 t+ Z1 o4 q) N( K
00:00:00.000 : Chapter 1; p( O. r. ]4 x& s2 V
00:02:25.270 : Chapter 2# g$ D/ t( X# }/ R, F7 u
00:05:25.867 : Chapter 3
& K/ W% l- N  J& B/ G2 F9 ~" z00:11:25.143 : Chapter 4
' }& y6 H) ]2 s2 F' Z00:16:47.506 : Chapter 5! q9 Z" E5 `4 Z" U; v3 L& C
00:23:58.980 : Chapter 6" ]$ W9 g5 v6 }! I
00:30:02.259 : Chapter 7
" ~0 b& ?% k/ K7 O8 s00:40:28.719 : Chapter 82 L" B6 A7 P, a$ W' c/ N
00:54:57.338 : Chapter 9
3 J! ], I1 g$ l/ V  \+ G6 d01:01:32.858 : Chapter 10
+ {& X6 I. v+ M$ D. j01:08:06.710 : Chapter 11( s8 E0 s+ |4 B& Q  i& K
01:16:48.858 : Chapter 12
( ]3 A' q3 L6 y4 N, {! J2 P01:23:26.131 : Chapter 13
+ B) l; F4 L' u% I01:28:34.855 : Chapter 14
& u1 H$ m9 t+ Y' f% @/ v" Y01:34:53.568 : Chapter 159 B; Q" N  N# g
01:40:15.806 : Chapter 16
/ ~" A3 A+ h9 Z: C$ e: q! r& ]/ _
2 v2 Y' A5 n' r7 s. Q
蓝光高清网提示您  点击下方附件名称  马上开始下载
$ o! L* h( R- n0 P7 C  b5 Y9 T3 Z6 A1 E* B9 y

+ j! d+ @4 ?; n# w多版本下载时请注意区分
, Y, A4 V1 [' e; A: A1 ?
9 g8 X% \3 B- i
1 b9 i' q6 A5 z/ N
天罗盗网(港) / 意大利任务 / 爆窃意大利/偷天换日4k The.Italian.Job.2003.2160p.WEB.DL.DD5.1.DV.MP4.x265-4k杜比视界电影下载
$ \. x% m5 }, E/ |! }7 e& Q
* f, @9 I8 Q" q偷天换日4k The.Italian.Job.2003.2160p.WEB.DL.DD5.1.DV.MP4.x265【4k 杜比视界 19.40GB】  |) J# b) G2 H5 M
偷天换日4k The.Italian.Job.2003.2160p.WEB-DL.DD5.1.DV.MP4.x265-TEPES.torrent (文件大小:24.89 KB)
加入蓝光高清网VIP会员  无限制下载本站所有资源---点这里

资源下载、资源播放、字幕使用、无法下载等常见问题---点这里
回复

使用道具 举报

精彩评论4

ggang1 发表于 2021-9-9 11:27:04 | 显示全部楼层
谢楼主分享
回复 支持 反对

使用道具 举报

sunxb1218 发表于 2021-9-14 14:18:24 | 显示全部楼层
谢谢分享!
% r( a. q, i$ @' ?9 Y* O6 ~/ F
回复

使用道具 举报

徐竹手机认证 发表于 2021-9-19 18:14:02 | 显示全部楼层
mark一下!!等有高清币了第一时间来下载~~~
回复 支持 反对

使用道具 举报

黎水昌手机认证 发表于 11 小时前 | 显示全部楼层
文件这么小,是真的4K吗?
回复 支持 反对

使用道具 举报

您需要登录后才可以回帖 登录 | 立即注册

本版积分规则

烧友之家(蓝光高清网)本站内容部分由用户自主分享和转载自互联网,转载目的在于传递更多信息,并不代表本网赞同其观点和对其真实性负责。 如有侵权、违反国家法律政策行为,请联系我们,我们会第一时间及时清除和处理!
蓝光高清网 综合资讯平台
关注我们
  • 官方微信公众号
  • 扫码下载官方APP

X3.4 Licensed© 2001-2013 蓝光高清网 烧友之家APP |网站地图