游客您好
第三方账号登陆
  • 点击联系客服

    在线时间:9:00-18:00

    客服QQ

    1371333023

    电子邮件

    lanniao@1080pro.net
  • 烧友之家APP

    随时掌握烧友资讯

  • 扫描二维码

    关注微信公众号

推荐阅读
蓝鸟
未知星球 | 未知职业
  • 关注0
  • 粉丝2
  • 帖子95610
精选帖子
开启左侧

偷窥程魔/偷窥者4K.The.Voyeurs.2021.2160p.AMZN.WEB-DL.x265.10bit.HDR10Plus.DDP5.1-4k电影下载—12.73 GB

[复制链接]
蓝鸟 发表于 2021-9-10 12:29:09 | 显示全部楼层 |阅读模式 打印 上一主题 下一主题
偷窥者
上映时间:2021年
类型:惊悚 
地区:美国 
导演:迈克尔·莫汉
主演:西德妮·斯威尼 / 贾斯蒂斯·史密斯 / 本·哈迪 / 刘承羽 / Katharine King So
画质标准:4K HDR  封装音轨:Dolby TrueHD 5.1 Dolby Atmos 
豆瓣评分:6.6分

加入蓝光高清网,轻松下载最新4k资源

您需要 登录 才可以下载或查看,没有帐号?立即注册

x
简       介: S/ T5 _1 p+ e/ e2 q

& Q& X/ p1 Z3 k1 F( I. w$ B4 ~/ J" D
, t/ K) V/ ]3 e" C: J1 a. M
  Adrien Brody饰演船长Charles Boone,妻子在海上不幸去世后,他带着孩子回到缅因州的小镇普雷切尔角,一段黑暗的家族历史将始终困扰着他们。根据史蒂芬·金的短篇小说《耶路撒冷地》改编。+ a5 `; c/ b$ q, r0 ~3 A

( y7 W& K. ~$ X1 p, [
% k* F; q/ J/ y& |. ]
影片参数' N! v- Y3 F6 `: H
偷窥程魔/偷窥者4K.The.Voyeurs.2021.2160p.AMZN.WEB-DL.x265.10bit.HDR10Plus.DDP5.1-4k电影信息
- T9 h# L4 Y9 ]8 NVideo2 A0 ]6 O" W1 M8 g3 U4 r' G
ID : 1
; w! {5 e1 \, r" c3 x$ N) a+ uFormat : HEVC4 ?# t6 Q. `" t. q
Format/Info : High Efficiency Video Coding2 Q/ ~7 _+ z4 h) }  n$ [
Format profile : Main 10@L5@Main
9 x7 Q+ I2 m4 QHDR format : SMPTE ST 2094 App 4, Version 1, HDR10+ Profile B compatible
7 d& {2 v: ]) ?" A2 }, ZCodec ID : V_MPEGH/ISO/HEVC5 n% H# y- A% q
Duration : 1 h 56 min7 e- A" d$ m9 K" E
Bit rate : 14.9 Mb/s
# ~5 m9 G3 k6 v% DWidth : 3 840 pixels
% M; y. x3 u) l2 [- O8 o: Y9 gHeight : 1 600 pixels
6 U  E% P% C5 _, D" V: ?! IDisplay aspect ratio : 2.40:18 |: z! I5 b+ t1 F
Frame rate mode : Constant
+ Z) i: C% r! Z) ~. ~. U" g; XFrame rate : 23.976 (24000/1001) FPS+ r$ h. s9 g6 h
Color space : YUV
* a7 B8 h$ w1 }# k/ @0 KChroma subsampling : 4:2:0
% u) H8 `' a+ X# R: g2 g6 lBit depth : 10 bits9 h5 u' p# b! j5 B
Bits/(Pixel*Frame) : 0.1015 V- f6 d) ~" M- @$ Z  B  u) l  w8 a
Stream size : 12.1 GiB (96%)
1 e- u% H+ r9 g. E+ n; _  vDefault : Yes
- M$ x* c+ W. @# FForced : No) N# T6 f) ]/ e( ^* _: q$ t# i
Color range : Limited
% g+ v# d% B1 m" H# V% dColor primaries : BT.2020/ s8 w+ Z7 t" N8 r! O+ Q
Transfer characteristics : PQ
; H8 m3 [; f  d2 b* z* h; |7 GMatrix coefficients : BT.2020 non-constant5 E% Z( X0 N& f
Mastering display color primaries : Display P3
% x$ L4 h% t% m  ]$ L) pMastering display luminance : min: 0.0001 cd/m2, max: 1000 cd/m2' \. O) ~- @) ^0 R9 ~
Maximum Content Light Level : 1036 cd/m2
4 `6 \% y: L( nMaximum Frame-Average Light Level : 481 cd/m2
" ^3 B* N% S3 W& x5 f, h8 B4 N7 r, R$ j% H2 d
$ T* z% X7 E8 F2 X6 o$ X5 o. ~1 |9 v
Audio
, d+ ?( G" b5 A  W8 SID : 2
8 U% |; M& J! b- g1 v) GFormat : E-AC-3
& Y  \- H, J! H! p% p7 DFormat/Info : Enhanced AC-3
* N0 @" b" V! r% ZCommercial name : Dolby Digital Plus( @& |- o0 X2 o
Codec ID : A_EAC3
2 R. y9 R9 }& r0 U+ h  \Duration : 1 h 56 min' \2 z/ C( I. s: q# S7 Z
Bit rate mode : Constant- l1 x( J( w1 l+ t
Bit rate : 640 kb/s
, U2 q, l. t3 ]0 X7 E# ~1 n9 ?Channel(s) : 6 channels0 ^) d0 K7 |, N5 K% @  {; s3 l
Channel layout : L R C LFE Ls Rs. B0 d7 W: w& B8 j& V
Sampling rate : 48.0 kHz
. _4 ?) s7 n: C, o1 W' `Frame rate : 31.250 FPS (1536 SPF)+ ]' Q( T6 @6 V1 h* H2 `/ M
Compression mode : Lossy/ _; |/ x: k7 K" Z* V( R
Stream size : 533 MiB (4%)4 K3 d6 v* Z$ N/ F0 @  k' A% f" o' I
Title : English
. W2 X' Z8 q5 KLanguage : English! H5 L* A) |$ [1 A% Y
Service kind : Complete Main# ]/ ^# s4 K7 a, z$ H& }+ F
Default : Yes
1 q0 _; `9 _( x6 K$ T0 MForced : No
! U( z! U" F; Z2 Y9 _

- G- X2 ~$ t0 k+ R" Q: T- V蓝光高清网提示您  点击下方附件名称  马上开始下载
9 D* D' u2 q" ~! G( G. U  Y5 q
5 b4 y$ c% j. o1 o' T  O
$ O% s. J# I* K+ [" w3 n  L
偷窥程魔/偷窥者4K.The.Voyeurs.2021.2160p.AMZN.WEB-DL.x265.10bit.HDR10Plus.DDP5.1-4K电影下载6 F$ U2 j  y7 [5 V# g6 V
9 x% A+ ^$ a7 M& B5 C# m
偷窥者4K.The.Voyeurs.2021.2160p.AMZN.WEB-DL.x265.10bit.HDR10Plus.DDP5.1 【4K HDR 12.73 GB】  Z$ O. y8 n3 P
偷窥者4K.The.Voyeurs.2021.2160p.AMZN.WEB-DL.x265.10bit.HDR10Plus.DDP5.1-T.torrent (文件大小:16.68 KB)
加入蓝光高清网VIP会员  无限制下载本站所有资源---点这里

资源下载、资源播放、字幕使用、无法下载等常见问题---点这里
回复

使用道具 举报

您需要登录后才可以回帖 登录 | 立即注册

本版积分规则

烧友之家(蓝光高清网)本站内容部分由用户自主分享和转载自互联网,转载目的在于传递更多信息,并不代表本网赞同其观点和对其真实性负责。 如有侵权、违反国家法律政策行为,请联系我们,我们会第一时间及时清除和处理!
蓝光高清网 综合资讯平台
关注我们
  • 官方微信公众号
  • 扫码下载官方APP

X3.4 Licensed© 2001-2013 蓝光高清网 烧友之家APP |网站地图