游客您好
第三方账号登陆
  • 点击联系客服

    在线时间:9:00-18:00

    客服QQ

    1371333023

    电子邮件

    lanniao@1080pro.net
  • 烧友之家APP

    随时掌握烧友资讯

  • 扫描二维码

    关注微信公众号

推荐阅读
蓝鸟
未知星球 | 未知职业
  • 关注0
  • 粉丝2
  • 帖子95610
精选帖子
开启左侧

[4K高清美剧] 警徽/盾牌 第1-7季4k The.Shield.S01.2160p.HULU.WEBRip.DDP5.1.x265美剧下载—66.99 GB

[复制链接]
蓝鸟 发表于 2021-9-10 13:02:49 | 显示全部楼层 |阅读模式 打印 上一主题 下一主题
盾牌

状态:第1~7季(完结)
上映时间:2002-03-12
类型:动作 惊悚 
地区:美国
导演:肖恩·赖安
主演:迈克尔·切克利斯 / 肯尼·约翰逊 / 杰·卡尔内斯
画质标准:4K(3840x2160) 封装音轨:MKV 音轨编码:其他DD
豆瓣评分:8.8分
剧情简介
  盾牌是一部近年少见的极具争议性的连续剧,它打破了传统警匪片套路,把一群警官与各种罪案做斗争的同时,也面临各种自身问题的困扰,一个个有着复杂性格的警察跃然于屏幕之上,彻底打破了“警察就是好人”这种简单而幼稚的界定....

加入蓝光高清网,轻松下载最新4k资源

您需要 登录 才可以下载或查看,没有帐号?立即注册

x
影片参数
警徽/盾牌第1-7季4k The.Shield.S01.2160p.HULU.WEBRip.DDP5.1.x265美剧信息
Video
ID : 1
Format : HEVC
Format/Info : High Efficiency Video Coding
Format profile : Main 10@L5.1@Main
Codec ID : V_MPEGH/ISO/HEVC
Duration : 46 min 33 s
Bit rate : 15.7 Mb/s
Width : 3 840 pixels
Height : 2 160 pixels
Display aspect ratio : 16:9
Frame rate mode : Constant
Frame rate : 23.976 (24000/1001) FPS
Color space : YUV
Chroma subsampling : 4:2:0
Bit depth : 10 bits
Bits/(Pixel*Frame) : 0.079
Stream size : 5.11 GiB (98%)
Default : Yes
Forced : No


Audio
ID : 2
Format : E-AC-3
Format/Info : Enhanced AC-3
Commercial name : Dolby Digital Plus
Codec ID : A_EAC3
Duration : 46 min 33 s
Bit rate mode : Constant
Bit rate : 256 kb/s
Channel(s) : 6 channels
Channel layout : L R C LFE Ls Rs
Sampling rate : 48.0 kHz
Frame rate : 31.250 FPS (1536 SPF)
Compression mode : Lossy
Stream size : 85.3 MiB (2%)
Language : English
Service kind : Complete Main
Default : Yes
Forced : No


Text #1
ID : 3
Format : UTF-8
Codec ID : S_TEXT/UTF8
Codec ID/Info : UTF-8 Plain Text
Duration : 45 min 36 s
Bit rate : 85 b/s
Count of elements : 872
Stream size : 28.4 KiB (0%)
Language : English
Default : No
Forced : No


Text #2
ID : 4
Format : UTF-8
Codec ID : S_TEXT/UTF8
Codec ID/Info : UTF-8 Plain Text
Duration : 46 min 20 s
Bit rate : 85 b/s
Count of elements : 905
Stream size : 28.9 KiB (0%)
Title : SDH
Language : English
Default : No
Forced : No


Menu
00:04:41.000 : Chapter 1
00:11:10.000 : Chapter 2
00:18:45.000 : Chapter 3
00:26:51.000 : Chapter 4
00:35:27.000 : Chapter 5
00:45:54.000 : Chapter 6 - Credits


蓝光高清网提示您  点击下方附件名称  马上开始下载


警徽/盾牌第1-7季4k The.Shield.S01.2160p.HULU.WEBRip.DDP5.1.x265美剧下载


盾牌 第1季4k The.Shield.S01.2160p.HULU.WEBRip.DDP5.1.x265【66.99 GB】
盾牌 第一季4k The.Shield.S01.2160p.HULU.WEBRip.DDP5.1.x265-FLUX.torrent (文件大小:85.42 KB)
加入蓝光高清网VIP会员  无限制下载本站所有资源---点这里

资源下载、资源播放、字幕使用、无法下载等常见问题---点这里
回复

使用道具 举报

精彩评论1

gdlmxia 发表于 2021-9-14 08:49:39 | 显示全部楼层
太好啦&萬分感謝版主的無私發佈分享%
回复 支持 反对

使用道具 举报

您需要登录后才可以回帖 登录 | 立即注册

本版积分规则

烧友之家(蓝光高清网)本站内容部分由用户自主分享和转载自互联网,转载目的在于传递更多信息,并不代表本网赞同其观点和对其真实性负责。 如有侵权、违反国家法律政策行为,请联系我们,我们会第一时间及时清除和处理!
蓝光高清网 综合资讯平台
关注我们
  • 官方微信公众号
  • 扫码下载官方APP

X3.4 Licensed© 2001-2013 蓝光高清网 烧友之家APP |网站地图