游客您好
第三方账号登陆
  • 点击联系客服

    在线时间:9:00-18:00

    客服QQ

    1371333023

    电子邮件

    lanniao@1080pro.net
  • 烧友之家APP

    随时掌握烧友资讯

  • 扫描二维码

    关注微信公众号

推荐阅读
蓝鸟
未知星球 | 未知职业
  • 关注0
  • 粉丝2
  • 帖子95610
精选帖子
开启左侧

恶煞(港) / 疾厄(台) / 肿瘤侠 / 恶毒 / 恶性 / 肿瘤 / Malignant Man/致命感应4k Malignant.2021.2160p.HMAX.WEB-DL.x265.10bit.HDR.DD5.1-4k电影下载—14.23 GB

  [复制链接]
蓝鸟 发表于 2021-9-11 09:29:48 | 显示全部楼层 |阅读模式 打印 上一主题 下一主题
致命感应
上映时间:2021年
类型:恐怖 
地区:中国大陆 美国 
导演:温子仁
主演:安娜贝拉·沃丽丝 / 麦蒂·哈森 / 吴宇卫 / 米歇尔·沃特 / 麦肯娜·格瑞丝
画质标准:4K HDR  封装音轨:Dolby TrueHD 5.1 
豆瓣评分:7.8分

加入蓝光高清网,轻松下载最新4k资源

您需要 登录 才可以下载或查看,没有帐号?立即注册

x
简       介
- C* n. G$ @$ V* ?) B! x
3 L9 \/ V, Z- K( `% d  麦迪森(安娜贝拉·沃丽丝 Annabelle Wallis 饰)在梦中不断看到恐怖谋杀案现场的幻象,而这些幻象实际上是真实发生过的凶案,她决定挖掘真相和自己的过去,却发现这一切与一位名叫“盖博瑞”的魔鬼有关。+ R: ~: Z7 K9 @- N7 T( h/ |

; t0 k5 M/ d; l+ q- D影片参数
0 O2 m& G8 [) U  t: _
恶煞(港) / 疾厄(台) / 肿瘤侠 / 恶毒 / 恶性 / 肿瘤 / Malignant Man/致命感应4k Malignant.2021.2160p.HMAX.WEB-DL.x265.10bit.HDR.DD5.1-4k电影信息
/ ^8 C( H! d' J7 T0 L1 V2 vVideo" v+ |) U6 [, M9 |+ L5 V: a1 Z0 F
ID : 12 K: p- _3 K8 m" y, ~9 Z" ^" o* i
Format : HEVC
8 W5 v$ z9 N: v5 N7 `Format/Info : High Efficiency Video Coding- e* w7 `  m: ^+ E3 o7 _% s/ N! s+ g- x
Format profile : Main 10@L5@Main
1 j+ T% F3 e5 _7 XHDR format : SMPTE ST 2086, HDR10 compatible
9 H2 F; g) V3 u3 Z/ O7 z+ tCodec ID : V_MPEGH/ISO/HEVC
- b  }+ A% ]! {0 x3 @Duration : 1 h 51 min
. i) j* B7 t3 O. x* t" uBit rate : 17.9 Mb/s8 f! }' _' F5 p' d4 s' d; w
Width : 3 840 pixels% G  p- m* E6 f- V( k0 z  v
Height : 2 160 pixels7 a3 H; m7 ?1 r9 W. J
Display aspect ratio : 16:9
& j0 K2 r: y2 c9 @Frame rate mode : Constant& }. d0 ]( {4 C, `- u! O
Frame rate : 23.976 (24000/1001) FPS
6 r$ p( b3 a7 K! F) Z8 x+ K/ KColor space : YUV4 R$ W% H8 A9 }- u* j, A
Chroma subsampling : 4:2:0; i% o3 s) \5 N1 T- l) b3 u0 F
Bit depth : 10 bits
8 f2 T: B& p( y  Z( t3 lBits/(Pixel*Frame) : 0.090
7 w" F( p7 K! r8 m/ y7 |! fStream size : 13.9 GiB (98%)$ k4 S, V  z5 p. N. e
Writing library : x265 3.4hy:[Linux][GCC 7.5.0][64 bit] 10bit5 ~7 k% G' `, L6 u: e& B' Q
Encoding settings : cpuid=1111039 / frame-threads=1 / wpp / no-pmode / no-pme / no-psnr / no-ssim / log-level=2 / input-csp=1 / input-res=3840x2160 / interlace=0 / total-frames=0 / level-idc=0 / high-tier=1 / uhd-bd=0 / ref=4 / no-allow-non-conformance / repeat-headers / annexb / no-aud / no-hrd / info / hash=0 / no-temporal-layers / no-open-gop / min-keyint=96 / keyint=96 / gop-lookahead=0 / bframes=3 / b-adapt=2 / b-pyramid / bframe-bias=0 / rc-lookahead=25 / lookahead-slices=4 / scenecut=40 / hist-scenecut=0 / radl=0 / no-splice / no-intra-refresh / ctu=64 / min-cu-size=8 / rect / no-amp / max-tu-size=32 / tu-inter-depth=1 / tu-intra-depth=1 / limit-tu=0 / rdoq-level=2 / dynamic-rd=0.00 / no-ssim-rd / signhide / no-tskip / nr-intra=0 / nr-inter=0 / no-constrained-intra / strong-intra-smoothing / max-merge=3 / limit-refs=3 / limit-modes / me=3 / subme=3 / merange=57 / temporal-mvp / no-frame-dup / no-hme / weightp / no-weightb / no-analyze-src-pics / deblock=0:0 / sao / no-sao-non-deblock / rd=4 / selective-sao=4 / no-early-skip / rskip / no-fast-intra / no-tskip-fast / no-cu-lossless / no-b-intra / no-splitrd-skip / rdpenalty=0 / psy-rd=2.00 / psy-rdoq=1.00 / no-rd-refine / no-lossless / cbqpoffs=0 / crqpoffs=0 / rc=abr / bitrate=18000 / qcomp=0.60 / qpstep=4 / stats-write=0 / stats-read=2 / cplxblur=20.0 / qblur=0.5 / vbv-maxrate=24500 / vbv-bufsize=24500 / vbv-init=0.6 / vbv-end=0.6 / vbv-end-fr-adj=0.0 / ipratio=1.40 / pbratio=1.30 / aq-mode=2 / aq-strength=1.00 / cutree / zone-count=0 / no-strict-cbr / qg-size=32 / no-rc-grain / qpmax=69 / qpmin=0 / no-const-vbv / sar=0 / overscan=0 / videoformat=5 / range=0 / colorprim=9 / transfer=16 / colormatrix=9 / chromaloc=0 / display-window=0 / master-display=G(13250,34500)B(7500,3000)R(34000,16000)WP(15635,16450)L(40000000,50) / cll=1184,169 / min-luma=0 / max-luma=1023 / log2-max-poc-lsb=8 / vui-timing-info / vui-hrd-info / no-concatenation / slices=1 / no-opt-qp-pps / no-opt-ref-list-length-pps / no-multi-pass-opt-rps / scenecut-bias=0.05 / hist-threshold=0.01 / no-opt-cu-delta-qp / no-aq-motion / hdr10 / no-hdr10-opt / no-dhdr10-opt / no-idr-recovery-sei / analysis-reuse-level=0 / analysis-save-reuse-level=0 / analysis-load-reuse-level=0 / scale-factor=0 / refine-intra=0 / refine-inter=0 / refine-mv=1 / refine-ctu-distortion=0 / no-limit-sao / ctu-info=0 / no-lowpass-dct / refine-analysis-type=0 / copy-pic=1 / max-ausize-factor=1.0 / no-dynamic-refine / no-single-sei / no-hevc-aq / no-svt / no-field / qp-adaptation-range=1.00 / no-scenecut-aware-qpconformance-window-offsets / right=0 / bottom=0 / decoder-max-rate=0
! ^- B7 I5 |$ b/ \& b  DDefault : Yes6 a2 f" x; B" L* Y
Forced : No
6 C: S5 g9 I+ \. A9 d1 _Color range : Limited" [3 g7 F7 Q9 n6 v- q
Color primaries : BT.2020
3 s# o- \, j7 q! F# ITransfer characteristics : PQ$ |1 X! N5 v7 k
Matrix coefficients : BT.2020 non-constant& g$ C, y4 ?4 n1 u0 k
Mastering display color primaries : Display P3
, X( e# e( c7 iMastering display luminance : min: 0.0050 cd/m2, max: 4000 cd/m2) Z$ I  S. r) ^6 F4 `5 @, W( `
Maximum Content Light Level : 1184 cd/m27 s4 a% }4 _5 l0 x3 T) q1 a
Maximum Frame-Average Light Level : 169 cd/m2
, |4 Z0 P$ R8 r; N3 R- x: ?" {* D
. y8 m+ x( a0 }6 F3 o; NAudio
5 V  q1 C: z/ uID : 2
0 s/ l" ^3 F$ ?% C5 aFormat : AC-3
" Z0 I  q* V. L! m, D0 |4 nFormat/Info : Audio Coding 3
; D6 h5 ~$ B! D' c- {; o, c# `Commercial name : Dolby Digital
0 S6 A1 u+ o8 JCodec ID : A_AC3
+ O% i- @" V" h% V+ q6 X  y( d, DDuration : 1 h 51 min
9 c9 i/ {. h$ r5 a" KBit rate mode : Constant
) M' L1 C# g: M/ Y: @) H8 A! A5 FBit rate : 384 kb/s  M* \# I+ ^0 D, {- Q2 n, D) M
Channel(s) : 6 channels4 Q4 m! i, [: c( V8 y
Channel layout : L R C LFE Ls Rs% g; [# w; C5 P, a, d
Sampling rate : 48.0 kHz% i4 D  T1 o3 ]0 V
Frame rate : 31.250 FPS (1536 SPF)
7 `2 d! w3 c* z  o, vCompression mode : Lossy3 C: c. e: @: m& g
Stream size : 306 MiB (2%)/ c9 u8 B, V9 M+ r3 g" U
Title : English( t. \" K$ a% J, a- C  B
Language : English: ~/ ~6 W0 X0 e( F2 a
Service kind : Complete Main
( t  G7 r/ G1 U! n3 jDefault : No& g1 S+ h- N) V$ g2 i, K5 a( f
Forced : No
- w9 p7 `( g" j. D! }% k' z4 n8 d/ W% q9 _- u9 s4 O
Text #11 Q6 ]$ i6 A; S! P- u; c
ID : 3) i: I( X0 q5 j3 F
Format : UTF-8
* t. K& c: J! x6 T3 ECodec ID : S_TEXT/UTF84 I( J; j, X+ u% j
Codec ID/Info : UTF-8 Plain Text' `5 f: j8 v: {9 f5 L
Duration : 1 h 45 min0 Y: V& r0 |* B' i
Bit rate : 33 b/s
+ ]" x7 Y% }! s/ GCount of elements : 963; h2 L) p" [1 l2 I4 b/ H" b
Stream size : 25.9 KiB (0%)( s6 h  m: ?& ~, h9 b
Title : English, v/ ~& f6 T, Y, {3 x
Language : English9 x& _  ]! e* v9 d$ i- q
Default : No
5 M# p6 R' Z' o/ V( iForced : No0 c1 g! {2 Q% C, y+ R8 V. L+ o

  I, A# w+ b9 i6 KText #2
2 U$ i( r) J3 x+ ~ID : 4: Y" c' f# W; G  I- S% H
Format : UTF-8; e8 L; W8 R! Z5 E0 |
Codec ID : S_TEXT/UTF8( ~, c5 {6 t! R& u0 J: J
Codec ID/Info : UTF-8 Plain Text
( q  n( g) W$ KDuration : 1 h 47 min0 S/ S1 }4 o: {9 A9 T& M% B
Bit rate : 45 b/s
9 B  D( _( b  m& |% x" RCount of elements : 1397
. j- r1 V% Y6 P" P( Q5 H  k7 [Stream size : 35.8 KiB (0%)4 J* d* E. E2 c$ x0 F3 |
Title : English [SDH]
7 @# F, r8 K2 VLanguage : English6 _6 n4 a2 `) v) h; F0 B4 e1 x
Default : No. z8 i; e) O+ H7 K6 [" }
Forced : No4 z' a. f6 r$ _

( ?3 p0 R1 I1 T' zText #3
' P% @3 Y4 c5 d7 r; w: Q, nID : 5
/ i/ x" N0 p" kFormat : UTF-81 t8 l7 v& P: G3 S2 x
Codec ID : S_TEXT/UTF8
2 `/ s5 P; T- }7 p1 w4 ZCodec ID/Info : UTF-8 Plain Text
. K7 A# z0 a, S8 NDuration : 1 h 45 min
# t- o( H* I; SBit rate : 34 b/s# _2 s, L0 H6 p3 U* n% H9 l
Count of elements : 9614 q* x! c% e+ U4 t1 y" H5 k! t9 n
Stream size : 26.6 KiB (0%)
3 c* A6 d: @9 ^" `7 w8 XTitle : Spanish9 x' f* E5 Y. P, P3 _; ^0 v  F# q
Language : Spanish9 Q& G; d! y( T3 x8 k$ y
Default : No9 h( G' V2 R( _
Forced : No1 y! J# M! J' B) ]6 R+ a

& B  @( e6 ?6 }6 g* gText #4
7 N! b& [& `( U- m  gID : 6. F. w6 Z& C2 T0 q
Format : UTF-84 d! v( M" v- R. J* v! t+ Q
Codec ID : S_TEXT/UTF8
! P8 G( E0 f0 I/ O4 s! L$ VCodec ID/Info : UTF-8 Plain Text5 x% b' j' Q, X# ]0 N
Duration : 1 h 47 min
% |1 J9 G. x, P5 i0 s; QBit rate : 43 b/s) j; i& W) [/ `* T$ J- F' H' E( Y
Count of elements : 14523 V8 |0 B, T4 T5 `
Stream size : 34.3 KiB (0%)
/ I0 j! c0 t- a5 n- [( N+ X) STitle : Spanish [SDH]' }* }6 U6 e, S: c, f
Language : Spanish
  j6 c5 N6 U/ uDefault : No0 F+ {8 A& Z$ j2 w) i( `& i
Forced : No
9 k+ U1 J) c8 U9 q# ]% ~7 C
蓝光高清网提示您  点击下方附件名称  马上开始下载
) }( U, `! ]+ ~- e  n
+ W# S9 l0 J  t! `1 @( A
多版本下载时请注意区分1 g) o- \! O- V" C! h8 e) ~# |

& m* |  |1 j$ @恶煞(港) / 疾厄(台) / 肿瘤侠 / 恶毒 / 恶性 / 肿瘤 / Malignant Man/致命感应4k Malignant.2021.2160p.HMAX.WEB-DL.x265.10bit.HDR.DD5.1-4k电影下载; v1 c4 C* c  F8 g2 ?( p5 r

" P6 K' ~0 j5 h" S- v: E致命感应4k Malignant.2021.2160p.HMAX.WEB-DL.x265.10bit.HDR.DD5.1【4k HDR 14.23 GB】4 k& U1 Q! w0 {+ n. ?. F  I3 I
致命感应4k Malignant.2021.2160p.HMAX.WEB-DL.x265.10bit.HDR.DD5.1-CM.torrent (文件大小:18.42 KB)
加入蓝光高清网VIP会员  无限制下载本站所有资源---点这里

资源下载、资源播放、字幕使用、无法下载等常见问题---点这里
回复

使用道具 举报

精彩评论4

sunxb1218 发表于 2021-9-12 12:15:56 | 显示全部楼层
谢谢分享
回复

使用道具 举报

爱出者爱返 发表于 2021-9-16 21:39:55 | 显示全部楼层
感觉很好看呀
回复 支持 反对

使用道具 举报

ggang1 发表于 2021-9-17 11:29:42 | 显示全部楼层

2 \1 q" V$ o8 H. o9 ~+ I$ P/ U谢楼主发帖,顶起
回复 支持 反对

使用道具 举报

一天丶世界 发表于 2021-9-19 23:18:18 | 显示全部楼层
很棒 谢谢分享
回复 支持 反对

使用道具 举报

您需要登录后才可以回帖 登录 | 立即注册

本版积分规则

烧友之家(蓝光高清网)本站内容部分由用户自主分享和转载自互联网,转载目的在于传递更多信息,并不代表本网赞同其观点和对其真实性负责。 如有侵权、违反国家法律政策行为,请联系我们,我们会第一时间及时清除和处理!
蓝光高清网 综合资讯平台
关注我们
  • 官方微信公众号
  • 扫码下载官方APP

X3.4 Licensed© 2001-2013 蓝光高清网 烧友之家APP |网站地图