游客您好
第三方账号登陆
  • 点击联系客服

    在线时间:9:00-18:00

    客服QQ

    1371333023

    电子邮件

    lanniao@1080pro.net
  • 烧友之家APP

    随时掌握烧友资讯

  • 扫描二维码

    关注微信公众号

推荐阅读
蓝鸟
未知星球 | 未知职业
  • 关注0
  • 粉丝2
  • 帖子95610
精选帖子
开启左侧

接住子弹 4K.Catch.the.Bullet.2021.2160p.WEB-DL.x265.10bit.SDR.DTS-HD.MA.5.1-4k电影下载—15.46 GB

[复制链接]
蓝鸟 发表于 2021-9-12 12:40:05 | 显示全部楼层 |阅读模式 打印 上一主题 下一主题
接住子弹
上映时间:2021年
类型:西部 
地区:美国 
导演:未知
主演:未知
画质标准:4K SDR  封装音轨:DTS-HD.MA 5.1 
豆瓣评分:7.1分

加入蓝光高清网,轻松下载最新4k资源

您需要 登录 才可以下载或查看,没有帐号?立即注册

x
简       介& q& A8 W" Q. ]$ P
4 b$ @$ u, r8 ?  x
& V2 w% e1 G% ]* O% X8 e% ?# {
  这部由 Peter Facinelli(暮光之城系列)主演的强大西部片展示了当你把一个好人推得太远时会发生什么。美国元帅布里特麦克马斯特斯执行任务返回,发现他的父亲(汤姆斯凯里特饰)受伤,他的儿子查德被不法分子杰德布莱克绑架。在他们的踪迹中,布里特与一名枪手副手和一个坚忍的波尼追踪者组成了一个团队。但是杰德和布里特都危险地靠近红色沙漠的苏族领土,这构成的威胁远比他们想象的要大。( r" M" M0 I& H# E

2 \, A* s4 d* }$ f1 E7 r& ?+ o6 d
+ g2 j& }0 w4 q$ ?% @% t( v
影片参数2 Z2 t$ Y/ S- v9 X  b
接住子弹4K.Catch.the.Bullet.2021.2160p.WEB-DL.x265.10bit.SDR.DTS-HD.MA.5.1-4k电影信息. q+ o7 V1 H+ p# d6 z4 Z

; K+ n% Z# {4 K6 Y# B5 A" x

! k4 a, Y0 j; l" j7 BVideo
8 c# V' |  L! k4 Q7 u7 i. S! cID : 1& ?1 C9 S* `  D7 Y  Z4 _6 q
Format : HEVC4 r; H( @4 g' [6 V  V# J4 u: u
Format/Info : High Efficiency Video Coding0 r# E$ o  `" Q3 `) C" O0 ?) l
Format profile : Main 10@L5@High, Y9 N/ u' o: P3 Y9 X
Codec ID : V_MPEGH/ISO/HEVC
: D2 X  g* D, d1 f! K( S, DDuration : 1 h 28 min
  M/ M5 S: t& f! hBit rate : 20.5 Mb/s
- `$ h0 U* s$ vWidth : 3 832 pixels
! U) ]  m1 n' t+ R6 sHeight : 2 152 pixels
7 Q% e1 `! ~; BDisplay aspect ratio : 16:97 h) R" t  V; B2 P  L8 e
Frame rate mode : Constant1 d4 h( q6 y: e8 p" O
Frame rate : 23.976 FPS
, w  [" E/ j" H% z+ i1 p- U. ]; mColor space : YUV
9 M" [( t2 g2 j5 T3 NChroma subsampling : 4:2:0' C3 m6 [/ O! b. f, J
Bit depth : 10 bits+ M6 y" |' t- q2 j1 X: z% _1 z) r
Bits/(Pixel*Frame) : 0.1046 ?4 a/ h/ ]: ?% S: U5 v/ `, m. W
Stream size : 12.7 GiB (82%)
7 _1 ]6 f* u8 W# y/ P1 Y" H+ RLanguage : English8 w8 i  l- ~! Q& R; j: L
Default : Yes. Y$ E. t& K+ P7 K' U1 `) r
Forced : No9 u' `% w7 E  ?. _0 c
Color range : Limited! j0 h+ k4 Y* D/ G; a
Color primaries : BT.709
2 E4 u  f" x) W& ?Transfer characteristics : BT.709
6 o/ U( F6 `" u% G- F; N" AMatrix coefficients : BT.709
" G' S3 l/ |5 R  _: h8 W1 i4 q# x. O8 g9 Z5 K( [! R; n% W0 C
+ ~9 P- D4 T' C6 j3 o
Audio #1* V' S$ M2 q/ y7 G) [
ID : 2
2 v; M! m: S) u. nFormat : DTS XLL
) b/ }; h9 K( m: Q1 j) D( RFormat/Info : Digital Theater Systems
/ _+ u0 |$ H$ @) UCommercial name : DTS-HD Master Audio( e7 U- q3 C) z# f( C
Codec ID : A_DTS7 q: ^  g7 C- Z. P8 J( b3 T% v
Duration : 1 h 28 min
, o' L9 @& i' yBit rate mode : Variable
( c/ ?$ f) p4 A3 H4 R$ K# [) PBit rate : 4 007 kb/s
, G8 o, I) z7 s- T" I7 ]9 fChannel(s) : 6 channels
- P, R" F2 K+ o& h4 o' b: GChannel layout : C L R Ls Rs LFE
8 }& W) _' {. {* |6 D" [6 PSampling rate : 48.0 kHz
$ f0 x  ?8 U8 DFrame rate : 93.750 FPS (512 SPF)' `9 h: {) f' T# p- J4 E" I+ i
Bit depth : 24 bits
3 ~3 U! H2 [% I" o$ L5 NCompression mode : Lossless
$ f& }9 {2 O! H! ^Stream size : 2.49 GiB (16%)
6 Z9 V- j3 F+ |  k6 fTitle : DTS-HD MA 5.1
, O1 E9 n0 M- z" g  D- b8 \Language : English
; ~& g. A) U$ f) i2 ^Default : Yes& a1 s4 Q" a2 a, z
Forced : No
. ~  G9 V/ J6 C. t3 X0 H' r
  {; n2 T! ]9 y4 i
9 {) v& b& Z$ d6 |) S9 }0 [; C
Audio #22 f1 y$ Y, X9 X8 }
ID : 32 s$ R1 ]4 Z( F& O2 H- I
Format : AC-3
' f  t% q5 E- t- W  `Format/Info : Audio Coding 3
2 _" P% y- t$ i# I, T. k7 GCommercial name : Dolby Digital# ]+ ^9 {; _5 O, m* X/ _: C
Codec ID : A_AC3
- J) K2 }; C. ]4 t! J/ p  LDuration : 1 h 28 min: S6 s  n8 q3 E, S/ R& ~
Bit rate mode : Constant
+ ?6 [5 c. O5 P$ x: F& [8 zBit rate : 384 kb/s6 I% ?. Z( x1 t) N! N9 k
Channel(s) : 6 channels
9 ^2 _6 B- p7 B% Y0 k7 i: }; |Channel layout : L R C LFE Ls Rs; p# d7 H/ j* {9 f" ]2 Z
Sampling rate : 48.0 kHz/ `) E/ K, }- h
Frame rate : 31.250 FPS (1536 SPF)/ S! W  o1 n+ Q+ _% A" G. t# j0 |
Compression mode : Lossy
: j" [( T/ o6 F1 rStream size : 244 MiB (2%)
+ u: f- m& d4 O8 P# z  z9 LTitle : DD 5.1% g7 P8 i; w0 g& N+ n
Language : English
+ Y( J5 n9 Y% J9 xService kind : Complete Main
+ v2 r! Z6 j5 k; o4 }$ N- P3 vDefault : No
5 w- l/ j& G- j' @  |Forced : No1 i' v7 m  [0 R. U
! e* f) I/ _5 q
( L0 B) N* `' x" Q6 \
Text #1
+ O% B# o, v! }/ ]; [& z3 ~; c% KID : 4; o; O# t$ @0 g7 T3 k
Format : UTF-8
/ D5 ?! D/ R2 RCodec ID : S_TEXT/UTF8
  S& R7 K2 x5 Z& }; B) U$ A6 [Codec ID/Info : UTF-8 Plain Text% U; [- ?. `; x! Y! z  Z
Duration : 1 h 26 min
8 `$ j7 \6 w4 I$ W4 kBit rate : 48 b/s0 I. S3 [* o$ d  l% U2 `! z
Count of elements : 1073, z1 P* k) |1 M" p# |
Stream size : 30.6 KiB (0%)
2 x# x! b  `- Z' R: qTitle : SRT
. K, L) d, E/ ]1 y5 R, I6 XLanguage : English" O6 e. l: e; H6 @( F
Default : Yes* [0 i) U& n- O
Forced : No
2 S: h* c' B; `% S. N
4 P4 ^2 }$ c/ I- c, @

0 S& J2 A/ b- G) O* T! Z9 pText #2
# r: ~6 f4 E' Q* [, bID : 5* e: O# g+ z. h0 r  O" y2 ^
Format : PGS
4 L- V" ~) K  V0 m" qMuxing mode : zlib
9 l- |$ V& F9 j1 R# tCodec ID : S_HDMV/PGS
' T# q/ Q1 S0 \0 s1 U  D$ uCodec ID/Info : Picture based subtitle format used on BDs/HD-DVDs
& S& [8 U9 \: FDuration : 1 h 26 min$ q8 O4 O- d# R
Bit rate : 31.7 kb/s; [4 C% W- I7 E. W8 G* T! E
Count of elements : 2292) }+ V- S! p1 m. H# H8 k
Stream size : 19.5 MiB (0%)
- _7 k+ f" j7 _* VLanguage : English
3 z( b9 e; q7 T  d3 K7 J7 I3 |Default : No1 Q! x+ @* j% K: d
Forced : No1 H5 U- L3 Z4 ?

3 J. d) b4 {1 U! q* a
$ T3 Z$ u! X% c3 G
Menu
" a# Z5 m. C* L( H1 c00:00:00.000 : Chapter 01, f* R2 X& y, T2 s. B
00:04:27.267 : Chapter 024 `) w0 n; h) @  w2 _% Y  }
00:10:39.722 : Chapter 03( r* q% I* I4 |: t( j* h
00:16:56.182 : Chapter 047 r" a& [( `% h; {1 s6 `
00:24:08.238 : Chapter 05
9 c; l# {6 B( H00:29:26.306 : Chapter 06
; R$ K: |  c6 I00:35:11.109 : Chapter 07
" v  t# L4 R: Z/ l! _) l00:39:51.180 : Chapter 085 j3 A! L8 @0 h: \! V) |& e
00:44:43.556 : Chapter 09
. b( s9 G% O- U5 X" m; ]+ d6 I00:52:07.333 : Chapter 100 @( o- y- t, G) x$ m
00:56:25.674 : Chapter 117 h0 n' W# R" A6 ~( n/ J- n
01:01:23.013 : Chapter 123 g2 Z  r6 @) k8 N. u
01:07:29.045 : Chapter 133 b. h. \$ J: x" Q+ a5 @
01:12:24.757 : Chapter 14& J+ T2 h% D) k
01:17:10.793 : Chapter 15
2 p4 k! W) Z' {01:24:37.906 : Chapter 16
9 {% F7 P0 R4 w$ W9 O3 o

6 A, t% E5 W9 j4 t蓝光高清网提示您  点击下方附件名称  马上开始下载8 S# p8 [/ H" I7 R- Z' H

3 B: o. S+ W; B& i. ~9 R) f

6 A1 L% b+ Z. i' p接住子弹4K.Catch.the.Bullet.2021.2160p.WEB-DL.x265.10bit.SDR.DTS-HD.MA.5.1-4K电影下载; X9 `) `; }; e" j) L$ u/ I
, ^; r4 m5 P' X4 L9 z
7 W. t; Q2 {5 q0 q( p
接住子弹4K.Catch.the.Bullet.2021.2160p.WEB-DL.x265.10bit.SDR.DTS-HD.MA.5.1【15.46 GB】4 _8 i$ l% q% b8 m
接住子弹4KCatch.the.Bullet.2021.2160p.WEB-DL.x265.10bit.SDR.DTS-HD.MA.5.1-SWTYBLZ.torrent (文件大小:20 KB)
加入蓝光高清网VIP会员  无限制下载本站所有资源---点这里

资源下载、资源播放、字幕使用、无法下载等常见问题---点这里
回复

使用道具 举报

您需要登录后才可以回帖 登录 | 立即注册

本版积分规则

烧友之家(蓝光高清网)本站内容部分由用户自主分享和转载自互联网,转载目的在于传递更多信息,并不代表本网赞同其观点和对其真实性负责。 如有侵权、违反国家法律政策行为,请联系我们,我们会第一时间及时清除和处理!
蓝光高清网 综合资讯平台
关注我们
  • 官方微信公众号
  • 扫码下载官方APP

X3.4 Licensed© 2001-2013 蓝光高清网 烧友之家APP |网站地图