游客您好
第三方账号登陆
  • 点击联系客服

    在线时间:9:00-18:00

    客服QQ

    1371333023

    电子邮件

    lanniao@1080pro.net
  • 烧友之家APP

    随时掌握烧友资讯

  • 扫描二维码

    关注微信公众号

推荐阅读
蓝鸟
未知星球 | 未知职业
  • 关注0
  • 粉丝2
  • 帖子95610
精选帖子
开启左侧

拆弹部队 4K.The.Hurt.Locker.2008.2160p.AMZN.WEB-DL.x265.10bit.HDR10Plus.DDP5.1-4k电影下载—14.02 GB

[复制链接]
蓝鸟 发表于 2021-9-12 12:44:58 | 显示全部楼层 |阅读模式 打印 上一主题 下一主题
拆弹部队
上映时间:2008年
类型:剧情 惊悚 战争 
地区:美国 
导演:凯瑟琳·毕格罗
主演:杰瑞米·雷纳 / 安东尼·麦凯 / 布莱恩·格拉格提 / 克里斯托弗·沙耶 / 大卫·摩斯
画质标准:4K HDR  封装音轨:Dolby TrueHD 5.1 Dolby Atmos 
豆瓣评分:7.8分

加入蓝光高清网,轻松下载最新4k资源

您需要 登录 才可以下载或查看,没有帐号?立即注册

x
简       介, R. @) A% f9 J) q

. A) S! M, n/ b: i$ g: P/ m3 c

! l$ P9 @) l, G' T" ~, q  美军侵入伊拉克后,上士威廉姆斯•詹姆斯(杰瑞米•雷纳 Jeremy Renner 饰)被调入陆军亡命连拆弹组,接替刚在巴格达执行任务中牺牲的同事。拆弹组另两人,负责联络的士官桑波恩(安东尼•麦凯 Anthony Mackie 饰)和负责掩护的特种兵欧文(布莱恩•杰拉蒂 Brian Geraghty 饰)对意气用事的威廉姆斯相当反感。但在联合国大楼的拆弹行动中,抗拒命令强行拆弹的威廉姆斯却得到上校瑞德(大卫•莫尔斯 David Morse 饰)的赞赏。在一次仓库拆弹任务中,威廉姆斯认为被用作尸体炸弹的伊拉克小男孩是他在军营认识的卖盗版DVD的贝克汉姆(克里斯托佛•萨伊 Christopher Sayegh 饰)。小贝克汉姆的死让威廉姆斯更为疯狂,竟私离军营单枪匹马入城调查……# ]& o& Z: A0 T/ V( q% @% h2 D
  本片荣获2010年第82届奥斯卡最佳影片、最佳导演、最佳原创剧本、最佳剪辑、最佳音效剪辑、最佳音响效果等6项大奖。

0 Z( C* F9 ^5 \! }' J0 B! H
; p+ D) K% g* ~0 B4 {3 Q

4 `  E* ^$ f. v# _影片参数
+ r# C8 k$ x5 v, ^
拆弹雄心(港) / 危机倒数(台) / 反恐防暴部队/拆弹部队4K.The.Hurt.Locker.2008.2160p.AMZN.WEB-DL.x265.10bit.HDR10Plus.DDP5.1-4k电影信息# N( |0 b# z$ M7 b: g/ p* G/ v: w
Video  I# R' W  u6 u" n
ID : 1
, u& D; K3 O, {Format : HEVC" l5 }& K* u# E3 o# v
Format/Info : High Efficiency Video Coding2 f! c- _8 Q; z$ w
Format profile : Main 10@L5@Main
9 u) t! K1 p" S$ |' j5 M  ZHDR format : SMPTE ST 2094 App 4, Version 1, HDR10+ Profile B compatible
' P% _2 |: f  j0 k2 aCodec ID : V_MPEGH/ISO/HEVC/ E1 V: @' r9 r9 }
Duration : 2 h 10 min
% Z0 u* |$ g; i- wBit rate : 14.7 Mb/s
: o: B. R( {6 h* ]! {5 e! [# bWidth : 3 840 pixels
! J& W+ o5 Q  VHeight : 2 080 pixels
% n: n. F1 [! T. V% xDisplay aspect ratio : 1.85:1
  j# w+ v0 p) _5 H5 S: `- qFrame rate mode : Constant
3 ^3 o$ c# h1 [5 MFrame rate : 23.976 (24000/1001) FPS) A: x% M$ n( }9 \$ J; Q
Color space : YUV6 V, i; L" Q/ ~5 {8 ^7 n. |4 @
Chroma subsampling : 4:2:0
( I$ i4 u0 m& dBit depth : 10 bits; L: v8 z: E# i8 k
Bits/(Pixel*Frame) : 0.077
) [( [; d  z! G; T" DStream size : 13.4 GiB (96%)/ Y( m/ a! V' `/ ?  e7 g
Language : English6 W! y& x1 a( T* n
Default : Yes
7 }) B9 v& i* t1 d- OForced : No9 q8 g  z* O8 E1 j5 D' I
Color range : Limited! r$ u( z+ R5 b
Color primaries : BT.20204 R# ~& g* q6 Y2 C
Transfer characteristics : PQ
8 y2 Q! m  A9 g3 ?: PMatrix coefficients : BT.2020 non-constant9 {0 q/ K, |. f4 u9 j
Mastering display color primaries : Display P3
+ ?, }% V, `# b  ^7 VMastering display luminance : min: 0.0050 cd/m2, max: 1000 cd/m2
  X9 `6 R6 b  v5 o2 ^# Z) n/ uMaximum Content Light Level : 999 cd/m25 F' h2 c- y5 G( x: K, D
Maximum Frame-Average Light Level : 502 cd/m2  s. w6 H8 I: F; d( C

0 i: p3 S$ m! I$ Z5 I( U- |; R
/ C6 d4 N2 Q4 |4 o+ e/ h* k
Audio
% R, b) b2 P- T' m8 G$ iID : 2
8 U+ V% H( n% O9 j* QFormat : E-AC-30 t3 u% ^0 Z: L
Format/Info : Enhanced AC-3
6 ~; W& l1 i3 [' Q% KCommercial name : Dolby Digital Plus- m6 i6 N  v$ M( ~3 ?! i6 L: L5 o3 d+ Z3 u7 U
Codec ID : A_EAC3
: o( q* s# e1 lDuration : 2 h 10 min
/ E) h" H& v$ o  N# g& Q0 iBit rate mode : Constant- a( x  U/ o! w  K5 J  r+ _% [
Bit rate : 640 kb/s
' n, \6 x5 u0 eChannel(s) : 6 channels
# |4 n; W5 Z' E* a( |: F# Z3 BChannel layout : L R C LFE Ls Rs
5 J1 P3 ]' l1 W7 jSampling rate : 48.0 kHz
; ^% M1 d9 z6 T% @Frame rate : 31.250 FPS (1536 SPF)
* w- {/ L1 d4 mCompression mode : Lossy
. \/ N3 a" z0 q, |- U7 TStream size : 598 MiB (4%)
0 L; Y5 n/ \$ M$ g: {1 pTitle : DDP 5.15 n  L9 m6 p, P$ ^* Y1 K* f
Language : English
* A  o# J( U. V  @1 ~- G( N3 p+ w) H; iService kind : Complete Main/ I1 O0 g7 z9 k% E' s
Default : No! L: ]6 B& u3 p6 x" \8 |
Forced : No" F3 C, p- V) @7 y7 h; \
  h2 Y9 a  Q' Z
: q/ [* c$ t$ ]
Text
1 z6 i% T; \9 S" g5 e" i) HID : 3
5 `8 n8 v( p; sFormat : UTF-8
0 L- u# R2 s: ACodec ID : S_TEXT/UTF8
# }# L: \: l! TCodec ID/Info : UTF-8 Plain Text$ A4 I( @" M# m! @  D
Duration : 2 h 4 min
/ L9 ~: i# e- R+ e9 Q: B0 v. iBit rate : 47 b/s& }. _! V8 q7 \& ~# }
Count of elements : 1545
/ I9 [) `( Z9 C: ]8 u8 ?Stream size : 43.1 KiB (0%)( T! [4 x: l2 k# d
Title : SDH
, z, s+ y4 {& i  C) P5 u0 g3 d( zLanguage : English, W6 M# G9 ?4 Y" Y6 K  |# p
Default : No% V% Z* r- H" q5 r2 B
Forced : No
- l4 q8 c$ @4 m9 ~3 H; [/ b1 O1 r) R: S

4 i% O" t& l8 n7 Q9 p) n: PMenu
  X$ y. z* k# {/ L, w) b00:00:00.000 : Studio Logo% O% Z$ k1 _. M8 y" k# H
00:00:32.000 : Studio Logos
* Y2 P1 d% h# t0 g00:00:36.000 : Robot and Soldiers Arrive
: A% A2 C* B# b/ L/ W( O3 j' O' W00:02:02.000 : Sanborn and Thompson Attempt to Defuse a Bomb
  N( d9 ?: v/ ~- s: [. \00:06:11.000 : Thompson Attempts to Defuse the Bomb Manually4 p" z; \4 B& F% m
00:10:09.000 : Sanborn Packs the Belongings of a Fallen Comrade2 g8 G' ^8 C3 d6 ?, X+ v" ?' P4 L
00:11:04.000 : Sanborn Introduces Himself to James
* L5 l/ l4 k4 C- I6 K3 A' |5 u00:12:33.000 : Owen and Sanborn Talk Iraq
7 Y; L) f9 Y: _% f. ^9 @00:13:40.000 : Team Tries to Find Missing Unit% R( e# o9 n$ H4 w' P& G  J
00:16:41.000 : James Approaches the Bomb
, M4 I! L" w5 M) a2 \# J* a2 M00:19:09.000 : A Car Creates a Tense Situation6 @- ?& v( d2 G" o& V7 C0 `
00:22:18.000 : James Attempts to Disable the IED2 h( _2 t; q- ^; z& h  T
00:26:58.000 : Sanborn Confronts James
5 K6 g. R- v& J+ H. N00:27:35.000 : Eldridge Plays Video Games and Gets a Visitor
% ?( w3 _4 X3 z/ H6 i$ B00:28:45.000 : James Buys a DVD From a Kid2 G+ _: R1 p" x: J
00:29:34.000 : Sanborn Confronts James About his Cowboy Attitude
% g: V+ W0 I) o8 k/ Y% f00:30:30.000 : The Unit Responds to a Bomb Threat3 {5 _8 n+ L$ y$ N; g0 Y( c. f
00:31:16.000 : An Unexpected Person Appears( k: B. t4 p# B5 [' I0 u5 Z
00:33:46.000 : Col. Reed Declares the Shooter's Condition& M" }1 W; j9 B+ E
00:34:24.000 : James Breaks Protocol$ A( N5 u, u4 d# n
00:38:04.000 : An Observer Creates Tension, @! R2 `6 S. |' C' I
00:40:52.000 : James Continues to Work7 m: i! M. A# l5 |4 Q* ^- \
00:43:53.000 : Col. Reed Complements James# S) h; Q$ I+ i( P7 S
00:45:09.000 : James Bonds with Beckham. `( F$ c9 T; {5 g: n+ R
00:47:20.000 : Eldridge Challenges his Psychiatrist0 z/ i/ _% U5 n! c
00:48:52.000 : Sanborn Plays With Fire
. s1 F$ P) ~2 g( z# H) ~3 [' [00:50:56.000 : The Unit Runs into a Group of Men
/ I) r2 f8 ~& i5 w2 j$ Q00:53:56.000 : Group Has Company
. e9 }# Z1 t/ C* H00:57:29.000 : Sanborns Needs Ammo- S" w2 c3 Q0 I3 s
01:02:05.000 : Sanborn Faces Off
/ X9 R* l$ Q6 a4 f! a6 N01:04:02.000 : Unit Waits it Out. x9 X& S2 r; A; d' v1 }! D: P8 ^) Y
01:06:47.000 : Eldridge Watches Goats on a Bridge
( Q% X8 |5 U4 }; R/ t01:09:13.000 : The Unit Lets Off Steam
$ D7 \7 j" j% D+ W01:15:04.000 : James Puts Sanborn to Bed
+ H) |0 t6 Y- f" s5 V01:16:30.000 : Dr. Cambridge Requests a Ride Along+ }% o; A" u5 H3 u7 H6 |
01:17:20.000 : Unit Prepares to Address a Threat
$ f% T8 h: m6 G2 B9 U01:17:48.000 : The Unit Inspects an Abandoned Warehouse
7 P$ h5 F; x) J01:21:12.000 : James Finds Something
$ ]: c& N9 P1 c+ f( ~7 O01:22:23.000 : James Deals with the Situation9 H- h; S" [9 I* H2 W3 x
01:26:26.000 : Cambridge Tries to Clear the Crowd0 o! w3 p1 i. J# g* V' e; Z8 U* M
01:29:09.000 : James Calls Connie
8 a" D5 N+ n! i3 L& w  D01:29:56.000 : James Questions the DVD Merchant
3 i) Q) l# \0 y. V: b01:32:07.000 : James Looks for Beckham's House
! i! k3 T) j" ?. h& h# J& n0 v- ]  ~8 c01:35:21.000 : James Tries to Reenter Base
8 r4 h4 e! s4 q* Z1 c01:37:01.000 : James Gets Called to Do an Assessment
' `2 @: V4 b. ^/ x7 l4 V01:38:07.000 : Sanborn and James Inspect the Aftermath
; E; X. e& @' j! h01:41:00.000 : James and Sanborn Speculate
+ z) l2 T7 Z) @5 l% T  u01:43:45.000 : The Team Splits up
. c4 r* N2 y: l- T6 {% u01:47:31.000 : James Showers in his Clothing" a* v$ ?7 y0 R$ }
01:48:41.000 : A Friend Resurfaces# ~) ~9 x. j6 N. U5 z! J
01:49:16.000 : Eldridge Is Airlifted
9 u/ O. B, _6 J$ ]+ q/ C" g01:50:23.000 : A Man Needs Help
6 H1 B* Y* Q; ]6 h01:52:28.000 : James Moves In% k, v7 e' P3 l- F7 p
01:56:06.000 : James Has News for the Man( d0 r) ]+ }# N; A
01:57:35.000 : Sanborn Talks to James
0 h) v  p$ y: Q5 [& |8 g1 H02:01:10.000 : James Shops for Groceries
( w# H& |( T8 P9 G1 e; T02:02:34.000 : James Talks to Connie5 z0 I( M- A/ K, |0 S
02:03:35.000 : James Gives an Emotional Speech, q# N( \/ v$ N" V  v* J
02:04:50.000 : James Touches Down; L# @, Z( N" T. ^
02:06:12.000 : End Credits
; E( h3 M  }4 ?7 r
5 P) \' Z/ a* ^# F, K% y
蓝光高清网提示您  点击下方附件名称  马上开始下载
- v( R) G8 P$ B+ c+ p6 g/ T% G. s  p4 ^4 z* n- N1 ]; \2 L

2 J  o: B3 P* G- ^" w# O拆弹雄心(港) / 危机倒数(台) / 反恐防暴部队/拆弹部队4K.The.Hurt.Locker.2008.2160p.AMZN.WEB-DL.x265.10bit.HDR10Plus.DDP5.1-4K电影下载/ E# P% t2 c, J6 Q2 \/ ]; ?
2 b; Y5 Y8 T/ q% {* n* [3 X
拆弹部队4K.The.Hurt.Locker.2008.2160p.AMZN.WEB-DL.x265.10bit.HDR10Plus.DDP5.1【14.02 GB】
# R! N$ k+ k" z% n8 W0 U6 l  n! p 拆弹部队4K.The.Hurt.Locker.2008.2160p.AMZN.WEB-DL.x265.10bit.HDR10Plus.DD.torrent (文件大小:18.2 KB)
加入蓝光高清网VIP会员  无限制下载本站所有资源---点这里

资源下载、资源播放、字幕使用、无法下载等常见问题---点这里
回复

使用道具 举报

精彩评论1

hmilyjian手机认证 发表于 2021-9-12 18:03:31 | 显示全部楼层
谢谢LZ分享  
回复 支持 反对

使用道具 举报

您需要登录后才可以回帖 登录 | 立即注册

本版积分规则

烧友之家(蓝光高清网)本站内容部分由用户自主分享和转载自互联网,转载目的在于传递更多信息,并不代表本网赞同其观点和对其真实性负责。 如有侵权、违反国家法律政策行为,请联系我们,我们会第一时间及时清除和处理!
蓝光高清网 综合资讯平台
关注我们
  • 官方微信公众号
  • 扫码下载官方APP

X3.4 Licensed© 2001-2013 蓝光高清网 烧友之家APP |网站地图