游客您好
第三方账号登陆
  • 点击联系客服

    在线时间:9:00-18:00

    客服QQ

    1371333023

    电子邮件

    lanniao@1080pro.net
  • 烧友之家APP

    随时掌握烧友资讯

  • 扫描二维码

    关注微信公众号

推荐阅读
蓝鸟
未知星球 | 未知职业
  • 关注0
  • 粉丝2
  • 帖子95610
精选帖子
开启左侧

绝命凯特/凯特4k Kate.2021.2160p.NF.WEBRip.x265.10bit.HDR.DDP5.1.Atmos-4k电影下载—12.66 GB

[复制链接]
蓝鸟 发表于 2021-9-13 12:25:00 | 显示全部楼层 |阅读模式 打印 上一主题 下一主题
凯特
上映时间:2021年
类型:动作 惊悚 犯罪 冒险 
地区:美国 
导演:塞德里克·萨科
主演:玛丽·伊丽莎白·温斯特德 / 米希尔·赫伊斯曼 / 伍迪·哈里森 / 浅野忠信 / 艾尔西亚·罗塔鲁
画质标准:4K HDR  封装音轨:Dolby TrueHD 5.1 Dolby Atmos 
豆瓣评分:6.4分

加入蓝光高清网,轻松下载最新4k资源

您需要 登录 才可以下载或查看,没有帐号?立即注册

x
简       介& I3 D1 `- M. N5 t# N4 S" v

. I) `( R* f* K$ K# ~6 h/ e
* ^' Y! A2 K2 @5 |. Z
 Netflix将打造一部以女性为主角的硬动作片《凯特》(Kate),具有《杀死比尔》和《女囚尼基塔》的风格,“把凯特·布兰切特想象为李·马文带进一部硬汉动作惊悚片,女主角要在24小时之内解决自己的谋杀案”。不过大魔王并没有确定出演,片方将寻找合适导演和主演,明年4月开拍,成本约为2500万美元。剧本由Umair Aleem(《终极救援》)编写,制片人包括 Kelly McCormick(《极寒之城》)、大卫·雷奇(《疾速追杀》《极寒之城》《死侍2》)、 Bryan Unkeless(《饥饿游戏》《我,托尼亚》)。
- R& ^( \9 ~. r7 i/ `- A9 U2 b$ P

8 [( d+ x+ t  P5 w( V% o影片参数1 y$ u# d5 e1 P7 j1 h2 w9 {
绝命凯特/凯特4k Kate.2021.2160p.NF.WEBRip.x265.10bit.HDR.DDP5.1.Atmos-4k电影信息
% r+ h$ {$ c) Y/ [5 ]Video
2 U+ ~0 d( R: r' G& m7 oID : 1. g% s8 c0 F' T6 I2 C) R) Q
Format : HEVC7 Q* X8 d- T1 L' D) s
Format/Info : High Efficiency Video Coding, E& j- i' C9 Q0 D/ u" B% J- W
Format profile : Main 10@L5.1@High0 ~4 c2 |( {  q- J# p; J
HDR format : SMPTE ST 2086, HDR10 compatible1 v  Y- U; S; @0 C: ]- Z$ Y
Codec ID : V_MPEGH/ISO/HEVC
3 B. c; a  V0 ?/ NDuration : 1 h 46 min- R5 G6 ?+ \7 |
Bit rate : 16.3 Mb/s
+ H$ I' ~5 L  ^  _" W$ o! u! W/ ?Width : 3 840 pixels
" a5 Y4 V* ]5 X' D, T' @Height : 1 608 pixels
: l( W0 K. D/ V( t* Q' H1 @Display aspect ratio : 2.40:1& k7 y5 C9 _  Z: X% r
Frame rate mode : Constant! K( S0 \" G% z0 J: z" G
Frame rate : 24.000 FPS
' k) \# @7 z- [5 `5 CColor space : YUV) b5 a9 @3 N' n1 @! z
Chroma subsampling : 4:2:0 (Type 2)
3 K; Q/ H* K+ E6 C5 MBit depth : 10 bits6 ^$ N; c) U; M) N9 h' q
Bits/(Pixel*Frame) : 0.110- H4 G) }' y+ ]$ h  a
Stream size : 12.1 GiB (95%)
% f0 m! O0 C0 x3 O& m3 p  SWriting library : x265 3.3+31-g431a22e82:[Windows][GCC 11.0.0][64 bit] 10bit) l# U9 i) h; M1 p% ]  K, {- e
Encoding settings : cpuid=1111039 / frame-threads=4 / numa-pools=28 / wpp / no-pmode / no-pme / no-psnr / no-ssim / log-level=2 / input-csp=1 / input-res=3840x1608 / interlace=0 / total-frames=137762 / level-idc=51 / high-tier=1 / uhd-bd=0 / ref=4 / no-allow-non-conformance / repeat-headers / annexb / aud / hrd / info / hash=0 / no-temporal-layers / open-gop / min-keyint=24 / keyint=250 / gop-lookahead=0 / bframes=4 / b-adapt=2 / b-pyramid / bframe-bias=0 / rc-lookahead=25 / lookahead-slices=4 / scenecut=40 / hist-scenecut=0 / radl=0 / no-splice / no-intra-refresh / ctu=64 / min-cu-size=8 / rect / no-amp / max-tu-size=32 / tu-inter-depth=1 / tu-intra-depth=1 / limit-tu=0 / rdoq-level=2 / dynamic-rd=0.00 / no-ssim-rd / signhide / no-tskip / nr-intra=0 / nr-inter=0 / no-constrained-intra / strong-intra-smoothing / max-merge=3 / limit-refs=3 / limit-modes / me=3 / subme=3 / merange=57 / temporal-mvp / no-frame-dup / no-hme / weightp / no-weightb / no-analyze-src-pics / deblock=-2:-2 / no-sao / no-sao-non-deblock / rd=4 / selective-sao=0 / no-early-skip / rskip / no-fast-intra / no-tskip-fast / no-cu-lossless / no-b-intra / no-splitrd-skip / rdpenalty=0 / psy-rd=2.00 / psy-rdoq=1.00 / no-rd-refine / no-lossless / cbqpoffs=0 / crqpoffs=0 / rc=crf / crf=14.0 / qcomp=0.60 / qpstep=4 / stats-write=0 / stats-read=0 / vbv-maxrate=100000 / vbv-bufsize=100000 / vbv-init=0.9 / crf-max=0.0 / crf-min=0.0 / ipratio=1.40 / pbratio=1.30 / aq-mode=1 / aq-strength=1.00 / cutree / zone-count=0 / no-strict-cbr / qg-size=32 / no-rc-grain / qpmax=69 / qpmin=0 / no-const-vbv / sar=0 / overscan=0 / videoformat=5 / range=0 / colorprim=9 / transfer=16 / colormatrix=9 / chromaloc=1 / chromaloc-top=2 / chromaloc-bottom=2 / display-window=0 / master-display=G(13250,34500)B(7500,3000)R(34000,16000)WP(15635,16450)L(40000000,50) / cll=738,157 / min-luma=0 / max-luma=1023 / log2-max-poc-lsb=8 / vui-timing-info / vui-hrd-info / slices=1 / no-opt-qp-pps / no-opt-ref-list-length-pps / no-multi-pass-opt-rps / scenecut-bias=0.05 / hist-threshold=0.01 / no-opt-cu-delta-qp / no-aq-motion / hdr10 / hdr10-opt / no-dhdr10-opt / no-idr-recovery-sei / analysis-reuse-level=0 / analysis-save-reuse-level=0 / analysis-load-reuse-level=0 / scale-factor=0 / refine-intra=0 / refine-inter=0 / refine-mv=1 / refine-ctu-distortion=0 / no-limit-sao / ctu-info=0 / no-lowpass-dct / refine-analysis-type=0 / copy-pic=1 / max-ausize-factor=1.0 / no-dynamic-refine / no-single-sei / no-hevc-aq / no-svt / no-field / qp-adaptation-range=1.00 / no-scenecut-aware-qpconformance-window-offsets / right=0 / bottom=0 / decoder-max-rate=06 Z8 ]# A$ C6 C% A. Y
Default : Yes, i  M* s7 L/ v; D. w
Forced : No
; i4 e: G) ^6 P2 ?( YColor range : Limited$ i* n+ B/ U6 J6 F
Color primaries : BT.2020
; I' ]: \0 n0 H. E" i) o( HTransfer characteristics : PQ
2 m/ c3 a! c! ?  p, N8 Z* eMatrix coefficients : BT.2020 non-constant
8 z. e8 M* c# j! P7 a  ~: QMastering display color primaries : Display P3" U5 T8 n* _( c$ T
Mastering display luminance : min: 0.0050 cd/m2, max: 4000 cd/m2
- R- c, ]& g6 m& p1 Z& Y! Z0 r% YMaximum Content Light Level : 738 cd/m24 R+ `9 D: n6 u$ n
Maximum Frame-Average Light Level : 157 cd/m2$ I4 u4 g6 ]; E4 N) _
0 ~$ Z3 L" H* n; z
2 q1 e2 y7 Z, H! t3 m, `
Audio
5 P' |3 g% M1 `) w2 D3 D' m' Z7 eID : 24 ]: F2 F- l1 K" s( s9 N9 A& k
Format : E-AC-3 JOC
8 x+ D' f9 E: z& w; E0 RFormat/Info : Enhanced AC-3 with Joint Object Coding6 N8 r2 G, B! f, ?6 `% ~3 h
Commercial name : Dolby Digital Plus with Dolby Atmos
: K" W9 C2 m" Q% B7 z, ~Codec ID : A_EAC3
! D( d$ U. y1 M7 T6 CDuration : 1 h 46 min
7 n) s; n! ?6 A' S, A0 D: B$ ]Bit rate mode : Constant
* u9 \5 A' F* N+ u2 S, m# sBit rate : 768 kb/s
- S! w  }3 K4 L6 H' N- F4 V, X* UChannel(s) : 6 channels
% q; J5 Q/ v1 X  PChannel layout : L R C LFE Ls Rs
5 z5 w  c3 `$ `8 `& TSampling rate : 48.0 kHz) d* F2 G4 _0 P' J$ U- ?
Frame rate : 31.250 FPS (1536 SPF)
* Q& w/ A, W% }3 \Compression mode : Lossy6 N7 t4 h; z7 ]/ R
Stream size : 584 MiB (5%)
7 y' `  J6 S, ]. R6 v. ]2 U+ XLanguage : English: f& P8 B: _7 K3 C7 E' Y
Service kind : Complete Main  M9 M& @4 K9 |/ T/ C& n7 Z
Default : No
7 Z. s& W) I  @) ~Forced : No* Q' q9 B" `1 F0 z' g$ A
Complexity index : 16
. g) a: X, y2 d7 o% CNumber of dynamic objects : 153 V" l( v* p& H- L+ v# X
Bed channel count : 1 channel
3 z( q! p/ u/ N, n  FBed channel configuration : LFE
1 V5 w4 q( ^2 f0 B8 }

+ Z" v  Z, Q, f; c7 l7 f5 f蓝光高清网提示您  点击下方附件名称  马上开始下载" w4 v$ a2 ^' d, d9 B( e7 t

# M; u% P7 c7 E, U
* z& S0 U0 e; g. V) T
绝命凯特/凯特4k Kate.2021.2160p.NF.WEBRip.x265.10bit.HDR.DDP5.1.Atmos-4k电影下载2 t0 r4 b* j$ y& b, b
7 K% D8 A6 Q9 k+ s
凯特4k Kate.2021.2160p.NF.WEBRip.x265.10bit.HDR.DDP5.1.Atmos【12.66 GB】【自带中字】
: F5 W% p, }, S; ]1 u 凯特4k Kate.2021.2160p.NF.WEBRip.x265.10bit.HDR.DDP5.1.Atmos-N0TTZ.torrent (文件大小:16.46 KB)
加入蓝光高清网VIP会员  无限制下载本站所有资源---点这里

资源下载、资源播放、字幕使用、无法下载等常见问题---点这里
回复

使用道具 举报

您需要登录后才可以回帖 登录 | 立即注册

本版积分规则

烧友之家(蓝光高清网)本站内容部分由用户自主分享和转载自互联网,转载目的在于传递更多信息,并不代表本网赞同其观点和对其真实性负责。 如有侵权、违反国家法律政策行为,请联系我们,我们会第一时间及时清除和处理!
蓝光高清网 综合资讯平台
关注我们
  • 官方微信公众号
  • 扫码下载官方APP

X3.4 Licensed© 2001-2013 蓝光高清网 烧友之家APP |网站地图