游客您好
第三方账号登陆
  • 点击联系客服

    在线时间:9:00-18:00

    客服QQ

    1371333023

    电子邮件

    lanniao@1080pro.net
  • 烧友之家APP

    随时掌握烧友资讯

  • 扫描二维码

    关注微信公众号

推荐阅读
蓝鸟
未知星球 | 未知职业
  • 关注0
  • 粉丝2
  • 帖子95610
精选帖子
开启左侧

致命诱惑 4k Fatal.Attraction.1987.2160p.WEB-DL.DD5.1.DV.MP4.x265杜比视界电影下载—12.72 GB

[复制链接]
蓝鸟 发表于 2021-9-13 19:39:00 | 显示全部楼层 |阅读模式 打印 上一主题 下一主题
致命诱惑
上映时间:更早
类型:剧情 惊悚 
地区:美国 
导演:阿德里安·莱恩
主演:迈克尔·道格拉斯 / 格伦·克洛斯 / 安妮·阿彻 / 艾伦.汉密尔顿.尼森
画质标准:4K  封装音轨:Dolby TrueHD 5.1 Dolby Atmos 
豆瓣评分:7.0分

加入蓝光高清网,轻松下载最新4k资源

您需要 登录 才可以下载或查看,没有帐号?立即注册

x
简       介% t! w( ^3 s+ h3 c; K1 A

4 C2 q; w) C' Y: [2 ~' h0 G
( M4 a! |; P9 P) p9 p. g
  丹(迈克尔·道格拉斯 Michael Douglas 饰)拥有着人人羡慕的幸福家庭,他和妻子贝丝(安妮·阿彻 Anne Archer 饰)之间的感情稳固而又长久,女儿艾伦(Ellen Hamilton Latzen 饰)更是机灵可爱。一次偶然中,不只是鬼迷心窍还是怎地, 丹竟然和一个名叫艾利克斯(格伦·克洛斯 Glenn Close 饰)的女人有了一段露水情缘,回家后面对妻儿,丹的内心充满了愧疚,他暗暗发誓,绝不让背叛再度发生。
) R0 u0 ?" m$ N! @" R  可惜艾利克斯并不同意但的看法,表面上,她是一个成熟稳重的知性派,可骨子里,艾利克斯却拥有着超越常人的偏执和固执,为了满足自己的私欲,她不断的骚扰着丹及其家庭,很快,这种骚扰变升级成为了犯罪。面对来势汹汹的艾利克斯,丹会选择怎样的对策来保护他的家庭呢?

6 n$ U$ P; q/ S8 O
" P# T# j# X* N. M$ A
. @/ ?) x$ l3 Y0 K! x8 O9 S8 P
影片参数$ f1 y& j$ i- N2 E7 O* n* b0 Q$ q7 V
孽缘(港) / 致命的吸引力(台 ) / 致命的诱惑 / Affairs of the Heart/致命诱惑4k Fatal.Attraction.1987.2160p.WEB-DL.DD5.1.DV.MP4.x265杜比视界电影信息9 k* ~$ ?1 D; t/ n) r# o& `# g" }
Video( y! G' @. Q) B* w7 A! E
ID : 10 L; F+ V5 t5 s- A+ `8 y; E
Format : HEVC" l5 @! l) q$ k
Format/Info : High Efficiency Video Coding
9 c2 n; D3 S) H5 ~Format profile : Main 10@L5@High0 f2 H( C3 D" a/ f" R
HDR format : Dolby Vision, Version 1.0, dvhe.05.06, BL+RPU
0 O0 F- v  W# x  }Codec ID : dvhe7 A* F! l) E3 P7 U" [' k' X
Codec ID/Info : High Efficiency Video Coding with Dolby Vision5 Z' I$ H7 S3 L4 \$ e
Duration : 1 h 59 min
: p+ q3 G+ {5 c7 L+ W  TBit rate : 14.9 Mb/s& m/ y) G1 F8 q' c! U
Width : 3 840 pixels
  l4 J( f. V# t' H" S4 [, kHeight : 2 160 pixels
* \% ^% f  d9 g) V/ z5 CDisplay aspect ratio : 16:9( K' m2 m" g( ^  t, u9 y
Frame rate mode : Constant* r5 L- @0 a0 I5 N% s
Frame rate : 23.976 (24000/1001) FPS
( X" l$ V6 E# R0 X" T& C# dColor space : YUV
+ m; R! h) ^% ?  _Chroma subsampling : 4:2:0 (Type 0); l+ A' J8 {" Q- r' E' j8 m
Bit depth : 10 bits
# H' e3 V. T, z: A7 mBits/(Pixel*Frame) : 0.075
7 c* V% v$ {! `6 h. VStream size : 12.4 GiB (97%)- A* u/ Z9 B; M5 J" S$ J
Default : Yes
9 ]/ B. q) O: O- z$ SAlternate group : 1& X0 |9 m6 z) F8 o. t$ v
Encoded date : UTC 2021-09-12 08:09:24
2 {7 ^9 R. ~; r& K0 }Tagged date : UTC 2021-09-12 08:13:05
0 ?' e) o4 n9 k& t8 A2 sColor range : Full
9 `# G) x' E: U8 RCodec configuration box : hvcC+dvcC
. ?8 Q+ Y! A# Q) r4 X* h- N5 g/ t7 `* h# _5 ?% x; b" d+ G

: f+ a: P, \3 q4 t/ l  F/ F' OAudio9 D( t. Y5 I  W1 a( }
ID : 2
) i( a/ E9 f; `5 F1 e- r0 B  qFormat : AC-3: m: h% a0 W6 q- y, l
Format/Info : Audio Coding 3) w' I9 z) I: ~3 O/ [3 H$ h1 [
Commercial name : Dolby Digital
8 Y* u+ D/ R. l. lCodec ID : ac-34 |$ ~- H; h% ^/ z5 `' z
Duration : 1 h 59 min4 ^3 r% }/ I2 h' d' l) q9 _
Bit rate mode : Constant
  T& v* r/ v) v! u: `Bit rate : 384 kb/s
% d* o, u6 `/ q! Z) e$ ^; }6 gMaximum bit rate : 406 kb/s7 J+ V6 b$ T0 e" G6 U2 t
Channel(s) : 6 channels
8 l0 L2 J" E6 d3 n: K' w: HChannel layout : L R C LFE Ls Rs- ?% i3 J# `1 g( ?
Sampling rate : 48.0 kHz
6 c& b' @5 q3 MFrame rate : 31.250 FPS (1536 SPF)
- I0 H$ u/ J7 Z7 T* _+ j1 V; QCompression mode : Lossy
- w7 u$ w5 `! L) m$ b  ?" wStream size : 328 MiB (3%)
; z+ @9 @! E6 D. C$ Q4 bLanguage : English4 g' M3 n" Z7 f  W. x
Service kind : Complete Main
. [% ^- F$ \" a' lEncoded date : UTC 2021-09-12 05:36:429 i: `) g: M3 m$ X9 f: [
Tagged date : UTC 2021-09-12 08:13:05
9 ?  d& l, \, r3 B. q* P+ F. d) G' e+ g, I+ J2 m8 q

- q  y5 E- P: ^- \Text
* ^1 U2 c, p/ ]( w, j: Q! k3 L0 t9 y; c$ JID : 3) j% f; _4 {+ B0 A: {" L0 D& d1 }
Format : Timed Text, h8 e3 Q4 Q0 u3 Q; H! \  t
Codec ID : tx3g/ H, ~2 C  \+ a7 y0 j
Duration : 1 h 52 min8 [5 p% z0 [7 n* q1 o. u
Bit rate mode : Variable
' \$ C/ H+ q6 z0 i7 J8 c3 N( QBit rate : 46 b/s2 e3 C( g) X2 C! r! i4 \0 d
Stream size : 37.5 KiB (0%)
3 C" q+ K/ J2 M; ~. `; W: y: ]: _; _Title : English# S, T4 S* q5 @, n
Language : English
/ S  ~0 J, a5 sForced : No
7 ?8 d6 I( _. {  [; K( rEncoded date : UTC 2021-09-12 08:13:05
) N  ~! y7 a0 t/ U; k: O/ NTagged date : UTC 2021-09-12 08:13:05
* K* S! l( L! f  ]* ^+ ?7 ^

8 ^0 d4 O3 a! V7 ?8 T. [( E- {4 D蓝光高清网提示您  点击下方附件名称  马上开始下载' ?& ], K0 d8 m$ D

  n, f5 u9 g$ }- s$ m3 a
. H+ ?7 U4 V' U
多版本下载时请注意区分
3 A5 c7 P$ ]2 o* s& S- o1 G/ o8 h( L4 M4 E3 |/ B

4 D: |& B( @. t孽缘(港) / 致命的吸引力(台 ) / 致命的诱惑 / Affairs of the Heart/致命诱惑4k Fatal.Attraction.1987.2160p.WEB-DL.DD5.1.DV.MP4.x265杜比视界电影下载* S7 q& k4 O# x6 B( a+ u

  ^, x1 ]: \, g9 F$ X( ^) H& C, u致命诱惑4k Fatal.Attraction.1987.2160p.WEB-DL.DD5.1.DV.MP4.x265【4K 杜比视界 12.72 GB】
- N" B- t5 U1 w) C. F- K 致命诱惑4k Fatal.Attraction.1987.2160p.WEB-DL.DD5.1.DV.MP4.x265-TEPES.torrent (文件大小:16.53 KB)
加入蓝光高清网VIP会员  无限制下载本站所有资源---点这里

资源下载、资源播放、字幕使用、无法下载等常见问题---点这里
回复

使用道具 举报

精彩评论4

listere手机认证 发表于 2021-9-16 21:54:08 | 显示全部楼层
好东西,下了下了
  b1 g( g4 }- T$ z9 i
回复 支持 反对

使用道具 举报

listere手机认证 发表于 2021-9-16 21:54:20 | 显示全部楼层
再来一个金币7 [( I% {) V& E: {# Y+ j9 U5 B
回复 支持 反对

使用道具 举报

listere手机认证 发表于 6 天前 | 显示全部楼层
好东西, 下了下了!
回复 支持 反对

使用道具 举报

listere手机认证 发表于 6 天前 | 显示全部楼层
金币金币!!
回复

使用道具 举报

您需要登录后才可以回帖 登录 | 立即注册

本版积分规则

烧友之家(蓝光高清网)本站内容部分由用户自主分享和转载自互联网,转载目的在于传递更多信息,并不代表本网赞同其观点和对其真实性负责。 如有侵权、违反国家法律政策行为,请联系我们,我们会第一时间及时清除和处理!
蓝光高清网 综合资讯平台
关注我们
  • 官方微信公众号
  • 扫码下载官方APP

X3.4 Licensed© 2001-2013 蓝光高清网 烧友之家APP |网站地图