游客您好
第三方账号登陆
  • 点击联系客服

    在线时间:9:00-18:00

    客服QQ

    1371333023

    电子邮件

    lanniao@1080pro.net
  • 烧友之家APP

    随时掌握烧友资讯

  • 扫描二维码

    关注微信公众号

推荐阅读
蓝鸟
未知星球 | 未知职业
  • 关注0
  • 粉丝2
  • 帖子95610
精选帖子
开启左侧

甜心女孩 4k Sweet.Girl.2021.2160p.NF.WEBRip.x265.10bit.SDR.DDP5.1.Atmos-4k电影下载—15.19 GB

[复制链接]
蓝鸟 发表于 2021-9-13 19:55:41 | 显示全部楼层 |阅读模式 打印 上一主题 下一主题
甜心女孩
上映时间:2021年
类型:动作 剧情 惊悚 
地区:美国 
导演:布莱恩·安德鲁·门多萨
主演:杰森·莫玛 / 伊莎贝拉·莫奈 / 阿德里娅·阿霍纳 / 艾米·布伦尼曼 / 迈克尔·雷蒙德-詹姆斯
画质标准:4K SDR  封装音轨:Dolby TrueHD 5.1 Dolby Atmos 
豆瓣评分:5.5分

加入蓝光高清网,轻松下载最新4k资源

您需要 登录 才可以下载或查看,没有帐号?立即注册

x
简       介1 h1 q, C- U$ z3 p' Q  ~* p8 l; ^& [3 R
# v3 u0 P7 T, r" l8 Q
  爱家男子雷·库珀发誓要让制药公司付出代价,因为在他的妻子(阿德里娅·阿霍纳饰)死于癌症之前,该公司将一种或能救命的药物从市场上撤下。然而,这场真相探寻之旅却让他和女儿瑞秋(伊莎贝拉·梅塞德饰)陷入险境,自此雷的任务变成了复仇,以保护自己唯一的家人。: g% h4 Z& K8 @4 f5 k2 |( L
3 Q# h$ m# \; n" G9 {/ G6 a

# }* l' R, m9 r影片参数
# y3 Y( o3 P3 J; r/ Y6 ~" [
护女煞星(台)/甜心女孩4k Sweet.Girl.2021.2160p.NF.WEBRip.x265.10bit.SDR.DDP5.1.Atmos-4k电影信息
# P% j' T* L; CVideo# h6 Y; M& m% B4 c2 {
ID : 1
" f! |" ]! b, yFormat : HEVC
! g  h' O5 U$ p* uFormat/Info : High Efficiency Video Coding
0 A  F. q% [: k5 Y& `0 AFormat profile : Main 10@L5.1@High
2 s- X+ @  M" Q1 v" F; |1 ^" r8 rCodec ID : V_MPEGH/ISO/HEVC
- ^( s0 S- {1 E8 w* TDuration : 1 h 50 min
' s7 y% W/ T. a- N, MBit rate : 18.9 Mb/s9 I, {: p9 [  V2 G: q/ }7 h
Width : 3 840 pixels
' y, F8 t7 Z% Q5 }Height : 1 608 pixels
  }1 ]( B- _5 {; {Display aspect ratio : 2.40:1
& V5 c3 S  L, D" ^4 mFrame rate mode : Constant$ c- \; q! G/ Y9 X' g* @
Frame rate : 24.000 FPS
& ]4 ^6 s! x; Y: i" F: }! ?/ IColor space : YUV
: t( q# {8 C5 E, k" N# V8 dChroma subsampling : 4:2:0 (Type 2)# L; c; }$ D% W$ G. r7 P9 p& t
Bit depth : 10 bits
! C  `# y" U3 I$ ?, W. i9 wBits/(Pixel*Frame) : 0.128
$ ^# i6 \7 Q2 v# J, Q( aStream size : 14.6 GiB (96%)7 g9 \& ^- W0 {  R/ f
Writing library : x265 3.5+13-4c6880de4:[Windows][GCC 11.2.0][64 bit] 10bit9 t, t! e' v0 ]; X/ k
Encoding settings : cpuid=1111039 / frame-threads=4 / numa-pools=24 / wpp / no-pmode / no-pme / no-psnr / ssim / log-level=2 / input-csp=1 / input-res=3840x1608 / interlace=0 / total-frames=158863 / level-idc=51 / high-tier=1 / uhd-bd=0 / ref=4 / no-allow-non-conformance / repeat-headers / annexb / no-aud / no-eob / no-eos / hrd / info / hash=0 / no-temporal-layers / no-open-gop / min-keyint=5 / keyint=240 / gop-lookahead=0 / bframes=8 / b-adapt=2 / b-pyramid / bframe-bias=0 / rc-lookahead=72 / lookahead-slices=0 / scenecut=40 / no-hist-scenecut / radl=0 / no-splice / no-intra-refresh / ctu=64 / min-cu-size=8 / no-rect / no-amp / max-tu-size=32 / tu-inter-depth=1 / tu-intra-depth=1 / limit-tu=0 / rdoq-level=2 / dynamic-rd=0.00 / no-ssim-rd / signhide / no-tskip / nr-intra=0 / nr-inter=0 / no-constrained-intra / no-strong-intra-smoothing / max-merge=4 / limit-refs=3 / no-limit-modes / me=3 / subme=5 / merange=48 / temporal-mvp / no-frame-dup / hme / Level / merange / L0,L1,L2=16,32,48 / weightp / weightb / no-analyze-src-pics / deblock=-3:-3 / no-sao / no-sao-non-deblock / rd=4 / selective-sao=0 / no-early-skip / rskip / no-fast-intra / no-tskip-fast / no-cu-lossless / b-intra / no-splitrd-skip / rdpenalty=0 / psy-rd=2.00 / psy-rdoq=1.00 / no-rd-refine / no-lossless / cbqpoffs=0 / crqpoffs=0 / rc=crf / crf=22.0 / qcomp=0.65 / qpstep=4 / stats-write=0 / stats-read=0 / vbv-maxrate=160000 / vbv-bufsize=160000 / vbv-init=0.9 / min-vbv-fullness=50.0 / max-vbv-fullness=80.0 / crf-max=0.0 / crf-min=0.0 / ipratio=1.35 / pbratio=1.25 / aq-mode=2 / aq-strength=0.80 / no-cutree / zone-count=1 / zones: / start-frame=147500 / end-frame=158862 / qp=40 / no-strict-cbr / qg-size=32 / no-rc-grain / qpmax=69 / qpmin=0 / no-const-vbv / sar=1 / overscan=0 / videoformat=5 / range=0 / colorprim=1 / transfer=1 / colormatrix=1 / chromaloc=1 / chromaloc-top=2 / chromaloc-bottom=2 / display-window=0 / cll=0,0 / min-luma=0 / max-luma=1023 / log2-max-poc-lsb=8 / vui-timing-info / vui-hrd-info / slices=1 / no-opt-qp-pps / no-opt-ref-list-length-pps / no-multi-pass-opt-rps / scenecut-bias=0.05 / hist-threshold=0.03 / no-opt-cu-delta-qp / no-aq-motion / no-hdr10 / no-hdr10-opt / no-dhdr10-opt / no-idr-recovery-sei / analysis-reuse-level=0 / analysis-save-reuse-level=0 / analysis-load-reuse-level=0 / scale-factor=0 / refine-intra=0 / refine-inter=0 / refine-mv=1 / refine-ctu-distortion=0 / no-limit-sao / ctu-info=0 / no-lowpass-dct / refine-analysis-type=0 / copy-pic=1 / max-ausize-factor=1.0 / no-dynamic-refine / no-single-sei / no-hevc-aq / no-svt / no-field / qp-adaptation-range=1.00 / scenecut-aware-qp=0conformance-window-offsets / right=0 / bottom=0 / decoder-max-rate=0 / no-vbv-live-multi-pass2 D8 G) P) I1 |( Y/ E% I6 g* j$ }
Default : Yes
+ ~# c- r) ?$ ~3 b9 _4 lForced : No- Q8 ~( x, J9 p: e6 ^/ q3 x
Color range : Limited4 ?/ i) c4 x  O/ [3 P
Color primaries : BT.7099 u4 e* d) F; B, Y  K
Transfer characteristics : BT.709
/ |; ]9 J- u# V% ?" ?9 T/ ^) J; uMatrix coefficients : BT.709
2 X  B7 R+ O4 U8 c' [' s# Z# f" T  C; K8 V8 H3 {( k
3 s' z4 V( [2 [8 {- S4 d
Audio7 V+ D7 [( {; v! f
ID : 2
! e. g3 C! P; m! L0 U6 B  ]Format : E-AC-3 JOC( ]' P8 f! x# W0 B' s* f
Format/Info : Enhanced AC-3 with Joint Object Coding
6 K# |& ]1 \( v' u* G8 w% x& ?& ICommercial name : Dolby Digital Plus with Dolby Atmos& I' j1 A  X( J
Codec ID : A_EAC3
1 G) K0 Z) D; @8 }6 v: j6 n  IDuration : 1 h 50 min
) S! e5 C8 @0 G& T2 ?, sBit rate mode : Constant
8 U- D( |, d' i  Z& dBit rate : 768 kb/s
, Z( [: w5 \0 {/ M, LChannel(s) : 6 channels
$ Q# j: P: b$ @' c" IChannel layout : L R C LFE Ls Rs2 f- u! a4 ^- B& m* ^
Sampling rate : 48.0 kHz
4 [7 G1 L0 G% _5 _  }, M$ ?Frame rate : 31.250 FPS (1536 SPF)+ P& E" o) \1 X+ W' {* ~( C! h. z
Compression mode : Lossy
  ~& E4 O9 W( k7 E: mDelay relative to video : 13 ms7 [' E& b5 ^3 t9 z% Y: o' d8 z
Stream size : 605 MiB (4%). x! {. _: s% m9 m" |
Language : English1 P) N. p  M8 c  \3 i8 l) e$ G( G
Service kind : Complete Main
+ _% [& {0 g4 _3 U# `' P2 N5 A. g9 PDefault : Yes' w- |3 @3 f: f& u+ e& R
Forced : No
- v! }, \9 A1 m8 [" z6 D! g8 b; ~Complexity index : 16
, C1 U- S' u) e4 u$ nNumber of dynamic objects : 15
, O, I6 r( A% _! a% y7 v. |) wBed channel count : 1 channel# c4 g8 i, R6 x1 y; j* D
Bed channel configuration : LFE

! H/ w$ V4 ^, J7 _9 z
5 y0 O) [) X2 K9 `* [8 \, I( E蓝光高清网提示您  点击下方附件名称  马上开始下载6 ?( w* i9 e9 q: L9 ~) e, T
" b3 E2 h' i, ^' N' n

3 |3 E  r0 _' Q! f# H护女煞星(台)/甜心女孩4k Sweet.Girl.2021.2160p.NF.WEBRip.x265.10bit.SDR.DDP5.1.Atmos-4k电影下载  N+ U9 t8 `( L

# x# U: R& K( [  M甜心女孩4k Sweet.Girl.2021.2160p.NF.WEBRip.x265.10bit.SDR.DDP5.1.Atmos【4k 2160p SDR 15.19 GB】
7 A1 S/ B% C& Q# |8 j5 \) d8 A' o 甜心女孩4k Sweet.Girl.2021.2160p.NF.WEBRip.x265.10bit.SDR.DDP5.1.Atmos-Ki.torrent (文件大小:19.64 KB)
加入蓝光高清网VIP会员  无限制下载本站所有资源---点这里

资源下载、资源播放、字幕使用、无法下载等常见问题---点这里
回复

使用道具 举报

精彩评论5

ggang1 发表于 2021-9-14 14:23:19 | 显示全部楼层
感謝無私分享
回复 支持 反对

使用道具 举报

listere手机认证 发表于 2021-9-14 18:50:02 | 显示全部楼层
下了看看!好东西!
回复 支持 反对

使用道具 举报

listere手机认证 发表于 2021-9-14 18:50:22 | 显示全部楼层
再来一个金币!
回复 支持 反对

使用道具 举报

listere手机认证 发表于 2021-9-14 18:50:29 | 显示全部楼层
还差一个!
回复

使用道具 举报

韦Wayne恩 发表于 2021-9-15 20:32:47 来自手机 | 显示全部楼层
谢谢楼主分享
回复 支持 反对

使用道具 举报

您需要登录后才可以回帖 登录 | 立即注册

本版积分规则

烧友之家(蓝光高清网)本站内容部分由用户自主分享和转载自互联网,转载目的在于传递更多信息,并不代表本网赞同其观点和对其真实性负责。 如有侵权、违反国家法律政策行为,请联系我们,我们会第一时间及时清除和处理!
蓝光高清网 综合资讯平台
关注我们
  • 官方微信公众号
  • 扫码下载官方APP

X3.4 Licensed© 2001-2013 蓝光高清网 烧友之家APP |网站地图